  0
SECTION
  2
HEADER
  9
$ACADVER
  1
AC1021
  9
$ACADMAINTVER
 70
     1
  9
$DWGCODEPAGE
  3
ANSI_936
  9
$LASTSAVEDBY
  1
Andy
  9
$INSBASE
 10
0.0
 20
0.0
 30
0.0
  9
$EXTMIN
 10
49.46552544299629
 20
155.5300201295615
 30
-0.000000000000013
  9
$EXTMAX
 10
637.7383799564529
 20
556.3022641615575
 30
0.0000000000000023
  9
$LIMMIN
 10
0.0
 20
0.0
  9
$LIMMAX
 10
420.0
 20
297.0
  9
$ORTHOMODE
 70
     1
  9
$REGENMODE
 70
     1
  9
$FILLMODE
 70
     1
  9
$QTEXTMODE
 70
     0
  9
$MIRRTEXT
 70
     0
  9
$LTSCALE
 40
1.0
  9
$ATTMODE
 70
     1
  9
$TEXTSIZE
 40
2.5
  9
$TRACEWID
 40
1.0
  9
$TEXTSTYLE
  7
Standard
  9
$CLAYER
  8
0
  9
$CELTYPE
  6
ByLayer
  9
$CECOLOR
 62
     1
  9
$CELTSCALE
 40
1.0
  9
$DISPSILH
 70
     0
  9
$DIMSCALE
 40
1.0
  9
$DIMASZ
 40
2.5
  9
$DIMEXO
 40
0.625
  9
$DIMDLI
 40
3.75
  9
$DIMRND
 40
0.0
  9
$DIMDLE
 40
0.0
  9
$DIMEXE
 40
1.25
  9
$DIMTP
 40
0.0
  9
$DIMTM
 40
0.0
  9
$DIMTXT
 40
8.0
  9
$DIMCEN
 40
2.5
  9
$DIMTSZ
 40
0.0
  9
$DIMTOL
 70
     0
  9
$DIMLIM
 70
     0
  9
$DIMTIH
 70
     0
  9
$DIMTOH
 70
     0
  9
$DIMSE1
 70
     0
  9
$DIMSE2
 70
     0
  9
$DIMTAD
 70
     1
  9
$DIMZIN
 70
     8
  9
$DIMBLK
  1

  9
$DIMASO
 70
     1
  9
$DIMSHO
 70
     1
  9
$DIMPOST
  1

  9
$DIMAPOST
  1

  9
$DIMALT
 70
     0
  9
$DIMALTD
 70
     3
  9
$DIMALTF
 40
0.03937007874016
  9
$DIMLFAC
 40
1.0
  9
$DIMTOFL
 70
     1
  9
$DIMTVP
 40
0.0
  9
$DIMTIX
 70
     0
  9
$DIMSOXD
 70
     0
  9
$DIMSAH
 70
     0
  9
$DIMBLK1
  1

  9
$DIMBLK2
  1

  9
$DIMSTYLE
  2
ISO-25
  9
$DIMCLRD
 70
     0
  9
$DIMCLRE
 70
     0
  9
$DIMCLRT
 70
     0
  9
$DIMTFAC
 40
1.0
  9
$DIMGAP
 40
0.625
  9
$DIMJUST
 70
     0
  9
$DIMSD1
 70
     0
  9
$DIMSD2
 70
     0
  9
$DIMTOLJ
 70
     0
  9
$DIMTZIN
 70
     8
  9
$DIMALTZ
 70
     0
  9
$DIMALTTZ
 70
     0
  9
$DIMUPT
 70
     0
  9
$DIMDEC
 70
     2
  9
$DIMTDEC
 70
     2
  9
$DIMALTU
 70
     2
  9
$DIMALTTD
 70
     3
  9
$DIMTXSTY
  7
Standard
  9
$DIMAUNIT
 70
     0
  9
$DIMADEC
 70
     0
  9
$DIMALTRND
 40
0.0
  9
$DIMAZIN
 70
     0
  9
$DIMDSEP
 70
    44
  9
$DIMATFIT
 70
     3
  9
$DIMFRAC
 70
     0
  9
$DIMLDRBLK
  1

  9
$DIMLUNIT
 70
     2
  9
$DIMLWD
 70
    -2
  9
$DIMLWE
 70
    -2
  9
$DIMTMOVE
 70
     0
  9
$DIMFXL
 40
1.0
  9
$DIMFXLON
 70
     0
  9
$DIMJOGANG
 40
0.7853981633974483
  9
$DIMTFILL
 70
     0
  9
$DIMTFILLCLR
 70
     0
  9
$DIMARCSYM
 70
     0
  9
$DIMLTYPE
  6

  9
$DIMLTEX1
  6

  9
$DIMLTEX2
  6

  9
$LUNITS
 70
     2
  9
$LUPREC
 70
     4
  9
$SKETCHINC
 40
1.0
  9
$FILLETRAD
 40
0.5
  9
$AUNITS
 70
     0
  9
$AUPREC
 70
     0
  9
$MENU
  1
.
  9
$ELEVATION
 40
0.0
  9
$PELEVATION
 40
0.0
  9
$THICKNESS
 40
0.0
  9
$LIMCHECK
 70
     0
  9
$CHAMFERA
 40
0.0
  9
$CHAMFERB
 40
0.0
  9
$CHAMFERC
 40
0.0
  9
$CHAMFERD
 40
0.0
  9
$SKPOLY
 70
     0
  9
$TDCREATE
 40
2457731.657286736
  9
$TDUCREATE
 40
2457731.323953403
  9
$TDUPDATE
 40
2457731.739550741
  9
$TDUUPDATE
 40
2457731.406217408
  9
$TDINDWG
 40
0.0519761458
  9
$TDUSRTIMER
 40
0.0519752199
  9
$USRTIMER
 70
     1
  9
$ANGBASE
 50
0.0
  9
$ANGDIR
 70
     0
  9
$PDMODE
 70
     0
  9
$PDSIZE
 40
0.0
  9
$PLINEWID
 40
0.0
  9
$SPLFRAME
 70
     0
  9
$SPLINETYPE
 70
     6
  9
$SPLINESEGS
 70
     8
  9
$HANDSEED
  5
420
  9
$SURFTAB1
 70
     6
  9
$SURFTAB2
 70
     6
  9
$SURFTYPE
 70
     6
  9
$SURFU
 70
     6
  9
$SURFV
 70
     6
  9
$UCSBASE
  2

  9
$UCSNAME
  2

  9
$UCSORG
 10
0.0
 20
0.0
 30
0.0
  9
$UCSXDIR
 10
1.0
 20
0.0
 30
0.0
  9
$UCSYDIR
 10
0.0
 20
1.0
 30
0.0
  9
$UCSORTHOREF
  2

  9
$UCSORTHOVIEW
 70
     0
  9
$UCSORGTOP
 10
0.0
 20
0.0
 30
0.0
  9
$UCSORGBOTTOM
 10
0.0
 20
0.0
 30
0.0
  9
$UCSORGLEFT
 10
0.0
 20
0.0
 30
0.0
  9
$UCSORGRIGHT
 10
0.0
 20
0.0
 30
0.0
  9
$UCSORGFRONT
 10
0.0
 20
0.0
 30
0.0
  9
$UCSORGBACK
 10
0.0
 20
0.0
 30
0.0
  9
$PUCSBASE
  2

  9
$PUCSNAME
  2

  9
$PUCSORG
 10
0.0
 20
0.0
 30
0.0
  9
$PUCSXDIR
 10
1.0
 20
0.0
 30
0.0
  9
$PUCSYDIR
 10
0.0
 20
1.0
 30
0.0
  9
$PUCSORTHOREF
  2

  9
$PUCSORTHOVIEW
 70
     0
  9
$PUCSORGTOP
 10
0.0
 20
0.0
 30
0.0
  9
$PUCSORGBOTTOM
 10
0.0
 20
0.0
 30
0.0
  9
$PUCSORGLEFT
 10
0.0
 20
0.0
 30
0.0
  9
$PUCSORGRIGHT
 10
0.0
 20
0.0
 30
0.0
  9
$PUCSORGFRONT
 10
0.0
 20
0.0
 30
0.0
  9
$PUCSORGBACK
 10
0.0
 20
0.0
 30
0.0
  9
$USERI1
 70
     0
  9
$USERI2
 70
     0
  9
$USERI3
 70
     0
  9
$USERI4
 70
     0
  9
$USERI5
 70
     0
  9
$USERR1
 40
0.0
  9
$USERR2
 40
0.0
  9
$USERR3
 40
0.0
  9
$USERR4
 40
0.0
  9
$USERR5
 40
0.0
  9
$WORLDVIEW
 70
     1
  9
$SHADEDGE
 70
     3
  9
$SHADEDIF
 70
    70
  9
$TILEMODE
 70
     1
  9
$MAXACTVP
 70
    64
  9
$PINSBASE
 10
0.0
 20
0.0
 30
0.0
  9
$PLIMCHECK
 70
     0
  9
$PEXTMIN
 10
0.0
 20
0.0
 30
0.0
  9
$PEXTMAX
 10
0.0
 20
0.0
 30
0.0
  9
$PLIMMIN
 10
0.0
 20
0.0
  9
$PLIMMAX
 10
12.0
 20
9.0
  9
$UNITMODE
 70
     0
  9
$VISRETAIN
 70
     1
  9
$PLINEGEN
 70
     0
  9
$PSLTSCALE
 70
     1
  9
$TREEDEPTH
 70
  3020
  9
$CMLSTYLE
  2
Standard
  9
$CMLJUST
 70
     0
  9
$CMLSCALE
 40
20.0
  9
$PROXYGRAPHICS
 70
     1
  9
$MEASUREMENT
 70
     1
  9
$CELWEIGHT
370
    -1
  9
$ENDCAPS
280
     0
  9
$JOINSTYLE
280
     0
  9
$LWDISPLAY
290
     0
  9
$INSUNITS
 70
     4
  9
$HYPERLINKBASE
  1

  9
$STYLESHEET
  1

  9
$XEDIT
290
     1
  9
$CEPSNTYPE
380
     0
  9
$PSTYLEMODE
290
     1
  9
$FINGERPRINTGUID
  2
{98D1CBF4-D50B-4A34-8D7D-A6CBEA096AAC}
  9
$VERSIONGUID
  2
{B4B514E3-31E6-488E-83EA-983238563CA8}
  9
$EXTNAMES
290
     1
  9
$PSVPSCALE
 40
0.0
  9
$OLESTARTUP
290
     0
  9
$SORTENTS
280
   127
  9
$INDEXCTL
280
     0
  9
$HIDETEXT
280
     1
  9
$XCLIPFRAME
290
     0
  9
$HALOGAP
280
     0
  9
$OBSCOLOR
 70
   257
  9
$OBSLTYPE
280
     0
  9
$INTERSECTIONDISPLAY
280
     0
  9
$INTERSECTIONCOLOR
 70
   257
  9
$DIMASSOC
280
     2
  9
$PROJECTNAME
  1

  9
$CAMERADISPLAY
290
     0
  9
$LENSLENGTH
 40
50.0
  9
$CAMERAHEIGHT
 40
0.0
  9
$STEPSPERSEC
 40
2.0
  9
$STEPSIZE
 40
6.0
  9
$3DDWFPREC
 40
2.0
  9
$PSOLWIDTH
 40
5.0
  9
$PSOLHEIGHT
 40
80.0
  9
$LOFTANG1
 40
1.570796326794896
  9
$LOFTANG2
 40
1.570796326794896
  9
$LOFTMAG1
 40
0.0
  9
$LOFTMAG2
 40
0.0
  9
$LOFTPARAM
 70
     7
  9
$LOFTNORMALS
280
     1
  9
$LATITUDE
 40
37.795
  9
$LONGITUDE
 40
-122.394
  9
$NORTHDIRECTION
 40
0.0
  9
$TIMEZONE
 70
 -8000
  9
$LIGHTGLYPHDISPLAY
280
     1
  9
$TILEMODELIGHTSYNCH
280
     1
  9
$CMATERIAL
347
ED
  9
$SOLIDHIST
280
     1
  9
$SHOWHIST
280
     1
  9
$DWFFRAME
280
     2
  9
$DGNFRAME
280
     0
  9
$REALWORLDSCALE
290
     1
  9
$INTERFERECOLOR
 62
     1
  9
$INTERFEREOBJVS
345
FA
  9
$INTERFEREVPVS
346
F7
  9
$CSHADOW
280
     0
  9
$SHADOWPLANELOCATION
 40
0.0
  0
ENDSEC
  0
SECTION
  2
CLASSES
  0
CLASS
  1
ACDBDICTIONARYWDFLT
  2
AcDbDictionaryWithDefault
  3
ObjectDBX Classes
 90
        0
 91
        1
280
     0
281
     0
  0
CLASS
  1
DICTIONARYVAR
  2
AcDbDictionaryVar
  3
ObjectDBX Classes
 90
        0
 91
        3
280
     0
281
     0
  0
CLASS
  1
TABLESTYLE
  2
AcDbTableStyle
  3
ObjectDBX Classes
 90
     4095
 91
        1
280
     0
281
     0
  0
CLASS
  1
MATERIAL
  2
AcDbMaterial
  3
ObjectDBX Classes
 90
     1024
 91
        3
280
     0
281
     0
  0
CLASS
  1
VISUALSTYLE
  2
AcDbVisualStyle
  3
ObjectDBX Classes
 90
     4095
 91
       16
280
     0
281
     0
  0
CLASS
  1
SORTENTSTABLE
  2
AcDbSortentsTable
  3
ObjectDBX Classes
 90
        0
 91
        1
280
     0
281
     0
  0
CLASS
  1
DIMASSOC
  2
AcDbDimAssoc
  3
"AcDbDimAssoc|Product Desc:     AcDim ARX App For Dimension|Company:          Autodesk, Inc.|WEB Address:      www.autodesk.com"
 90
        0
 91
        6
280
     0
281
     0
  0
ENDSEC
  0
SECTION
  2
TABLES
  0
TABLE
  2
VPORT
  5
8
330
0
100
AcDbSymbolTable
 70
     1
  0
VPORT
  5
EB
330
8
100
AcDbSymbolTableRecord
100
AcDbViewportTableRecord
  2
*Active
 70
     0
 10
0.0
 20
0.0
 11
1.0
 21
1.0
 12
343.6019526997246
 22
355.9161421455595
 13
0.0
 23
0.0
 14
10.0
 24
10.0
 15
10.0
 25
10.0
 16
0.0
 26
0.0
 36
1.0
 17
0.0
 27
0.0
 37
0.0
 40
403.641735039385
 41
2.225806451612903
 42
50.0
 43
0.0
 44
0.0
 50
0.0
 51
0.0
 71
     0
 72
  1000
 73
     1
 74
     3
 75
     0
 76
     0
 77
     0
 78
     0
281
     0
 65
     1
110
0.0
120
0.0
130
0.0
111
1.0
121
0.0
131
0.0
112
0.0
122
1.0
132
0.0
 79
     0
146
0.0
348
F6
 60
     2
 61
     5
292
     1
282
     1
141
0.0
142
0.0
 63
   250
421
  3355443
  0
ENDTAB
  0
TABLE
  2
LTYPE
  5
5
330
0
100
AcDbSymbolTable
 70
     1
  0
LTYPE
  5
14
330
5
100
AcDbSymbolTableRecord
100
AcDbLinetypeTableRecord
  2
ByBlock
 70
     0
  3

 72
    65
 73
     0
 40
0.0
  0
LTYPE
  5
15
330
5
100
AcDbSymbolTableRecord
100
AcDbLinetypeTableRecord
  2
ByLayer
 70
     0
  3

 72
    65
 73
     0
 40
0.0
  0
LTYPE
  5
16
330
5
100
AcDbSymbolTableRecord
100
AcDbLinetypeTableRecord
  2
Continuous
 70
     0
  3
Solid line
 72
    65
 73
     0
 40
0.0
  0
ENDTAB
  0
TABLE
  2
LAYER
  5
2
330
0
100
AcDbSymbolTable
 70
     2
  0
LAYER
  5
10
330
2
100
AcDbSymbolTableRecord
100
AcDbLayerTableRecord
  2
0
 70
     0
 62
     7
  6
Continuous
370
    -3
390
F
347
EF
  0
LAYER
  5
13A
330
2
100
AcDbSymbolTableRecord
100
AcDbLayerTableRecord
  2
Defpoints
 70
     0
 62
     7
  6
Continuous
290
     0
370
    -3
390
F
347
EF
  0
ENDTAB
  0
TABLE
  2
STYLE
  5
3
330
0
100
AcDbSymbolTable
 70
     1
  0
STYLE
  5
11
330
3
100
AcDbSymbolTableRecord
100
AcDbTextStyleTableRecord
  2
Standard
 70
     0
 40
0.0
 41
1.0
 50
0.0
 71
     0
 42
2.5
  3
txt
  4
gbcbig.shx
  0
ENDTAB
  0
TABLE
  2
VIEW
  5
6
330
0
100
AcDbSymbolTable
 70
     0
  0
ENDTAB
  0
TABLE
  2
UCS
  5
7
330
0
100
AcDbSymbolTable
 70
     0
  0
ENDTAB
  0
TABLE
  2
APPID
  5
9
330
0
100
AcDbSymbolTable
 70
     3
  0
APPID
  5
12
330
9
100
AcDbSymbolTableRecord
100
AcDbRegAppTableRecord
  2
ACAD
 70
     0
  0
APPID
  5
9E
330
9
100
AcDbSymbolTableRecord
100
AcDbRegAppTableRecord
  2
ACAD_PSEXT
 70
     0
  0
APPID
  5
1FE
330
9
100
AcDbSymbolTableRecord
100
AcDbRegAppTableRecord
  2
ACAD_EXEMPT_FROM_CAD_STANDARDS
 70
     0
  0
ENDTAB
  0
TABLE
  2
DIMSTYLE
  5
A
330
0
100
AcDbSymbolTable
 70
     1
100
AcDbDimStyleTable
 71
     1
340
27
  0
DIMSTYLE
105
27
102
{ACAD_REACTORS
330
139
330
1AE
330
220
330
23B
330
273
330
29C
330
2B5
102
}
330
A
100
AcDbSymbolTableRecord
100
AcDbDimStyleTableRecord
  2
ISO-25
 70
     0
 41
2.5
 42
0.625
 43
3.75
 44
1.25
 73
     0
 74
     0
 77
     1
 78
     8
140
8.0
141
2.5
143
0.03937007874016
147
0.625
171
     3
172
     1
271
     2
272
     2
274
     3
278
    44
283
     0
284
     8
340
11
  0
ENDTAB
  0
TABLE
  2
BLOCK_RECORD
  5
1
330
0
100
AcDbSymbolTable
 70
    18
  0
BLOCK_RECORD
  5
1F
102
{ACAD_XDICTIONARY
360
12A
102
}
330
1
100
AcDbSymbolTableRecord
100
AcDbBlockTableRecord
  2
*Model_Space
340
22
 70
     0
280
     1
281
     0
  0
BLOCK_RECORD
  5
D2
330
1
100
AcDbSymbolTableRecord
100
AcDbBlockTableRecord
  2
*Paper_Space
340
D3
 70
     0
280
     1
281
     0
  0
BLOCK_RECORD
  5
D6
330
1
100
AcDbSymbolTableRecord
100
AcDbBlockTableRecord
  2
*Paper_Space0
340
D7
 70
     0
280
     1
281
     0
  0
BLOCK_RECORD
  5
13B
330
1
100
AcDbSymbolTableRecord
100
AcDbBlockTableRecord
  2
*D1
340
0
 70
     0
280
     1
281
     0
  0
BLOCK_RECORD
  5
153
330
1
100
AcDbSymbolTableRecord
100
AcDbBlockTableRecord
  2
*D2
340
0
 70
     0
280
     1
281
     0
  0
BLOCK_RECORD
  5
1AF
330
1
100
AcDbSymbolTableRecord
100
AcDbBlockTableRecord
  2
*D3
340
0
 70
     0
280
     1
281
     0
  0
BLOCK_RECORD
  5
1D1
330
1
100
AcDbSymbolTableRecord
100
AcDbBlockTableRecord
  2
*D4
340
0
 70
     0
280
     1
281
     0
  0
BLOCK_RECORD
  5
221
330
1
100
AcDbSymbolTableRecord
100
AcDbBlockTableRecord
  2
*D5
340
0
 70
     0
280
     1
281
     0
  0
BLOCK_RECORD
  5
23C
330
1
100
AcDbSymbolTableRecord
100
AcDbBlockTableRecord
  2
*D6
340
0
 70
     0
280
     1
281
     0
  0
BLOCK_RECORD
  5
257
330
1
100
AcDbSymbolTableRecord
100
AcDbBlockTableRecord
  2
*D7
340
0
 70
     0
280
     1
281
     0
  0
BLOCK_RECORD
  5
274
330
1
100
AcDbSymbolTableRecord
100
AcDbBlockTableRecord
  2
*D8
340
0
 70
     0
280
     1
281
     0
  0
BLOCK_RECORD
  5
29D
330
1
100
AcDbSymbolTableRecord
100
AcDbBlockTableRecord
  2
*D9
340
0
 70
     0
280
     1
281
     0
  0
BLOCK_RECORD
  5
2B6
330
1
100
AcDbSymbolTableRecord
100
AcDbBlockTableRecord
  2
*D10
340
0
 70
     0
280
     1
281
     0
  0
BLOCK_RECORD
  5
346
330
1
100
AcDbSymbolTableRecord
100
AcDbBlockTableRecord
  2
*D11
340
0
 70
     0
280
     1
281
     0
  0
BLOCK_RECORD
  5
35B
330
1
100
AcDbSymbolTableRecord
100
AcDbBlockTableRecord
  2
*D12
340
0
 70
     0
280
     1
281
     0
  0
BLOCK_RECORD
  5
367
330
1
100
AcDbSymbolTableRecord
100
AcDbBlockTableRecord
  2
*D13
340
0
 70
     0
280
     1
281
     0
  0
BLOCK_RECORD
  5
374
330
1
100
AcDbSymbolTableRecord
100
AcDbBlockTableRecord
  2
*D14
340
0
 70
     0
280
     1
281
     0
  0
BLOCK_RECORD
  5
381
330
1
100
AcDbSymbolTableRecord
100
AcDbBlockTableRecord
  2
*D15
340
0
 70
     0
280
     1
281
     0
  0
BLOCK_RECORD
  5
38E
330
1
100
AcDbSymbolTableRecord
100
AcDbBlockTableRecord
  2
*D16
340
0
 70
     0
280
     1
281
     0
  0
BLOCK_RECORD
  5
39A
330
1
100
AcDbSymbolTableRecord
100
AcDbBlockTableRecord
  2
*D17
340
0
 70
     0
280
     1
281
     0
  0
ENDTAB
  0
ENDSEC
  0
SECTION
  2
BLOCKS
  0
BLOCK
  5
20
330
1F
100
AcDbEntity
  8
0
100
AcDbBlockBegin
  2
*Model_Space
 70
     0
 10
0.0
 20
0.0
 30
0.0
  3
*Model_Space
  1

  0
ENDBLK
  5
21
330
1F
100
AcDbEntity
  8
0
100
AcDbBlockEnd
  0
BLOCK
  5
D4
330
D2
100
AcDbEntity
 67
     1
  8
0
100
AcDbBlockBegin
  2
*Paper_Space
 70
     0
 10
0.0
 20
0.0
 30
0.0
  3
*Paper_Space
  1

  0
ENDBLK
  5
D5
330
D2
100
AcDbEntity
 67
     1
  8
0
100
AcDbBlockEnd
  0
BLOCK
  5
D8
330
D6
100
AcDbEntity
 67
     1
  8
0
100
AcDbBlockBegin
  2
*Paper_Space0
 70
     0
 10
0.0
 20
0.0
 30
0.0
  3
*Paper_Space0
  1

  0
ENDBLK
  5
D9
330
D6
100
AcDbEntity
 67
     1
  8
0
100
AcDbBlockEnd
  0
BLOCK
  5
145
330
13B
100
AcDbEntity
  8
0
100
AcDbBlockBegin
  2
*D1
 70
     1
 10
0.0
 20
0.0
 30
0.0
  3
*D1
  1

  0
LINE
  5
291
330
13B
100
AcDbEntity
  8
0
 62
     0
370
    -2
100
AcDbLine
 10
203.7162532458169
 20
352.8591315523126
 30
0.0
 11
215.540584033283
 21
352.8591315523126
 31
0.0
  0
LINE
  5
292
330
13B
100
AcDbEntity
  8
0
 62
     0
370
    -2
100
AcDbLine
 10
203.7162532458169
 20
493.8591315523124
 30
0.0
 11
215.5405840332831
 21
493.8591315523124
 31
0.0
  0
LINE
  5
293
330
13B
100
AcDbEntity
  8
0
 62
     0
370
    -2
100
AcDbLine
 10
214.290584033283
 20
355.3591315523127
 30
0.0
 11
214.2905840332831
 21
491.3591315523127
 31
0.0
  0
SOLID
  5
294
330
13B
100
AcDbEntity
  8
0
 62
     0
100
AcDbTrace
 10
213.8739173666164
 20
355.3591315523127
 30
0.0
 11
214.7072506999497
 21
355.3591315523127
 31
0.0
 12
214.290584033283
 22
352.8591315523126
 32
0.0
 13
214.290584033283
 23
352.8591315523126
 33
0.0
  0
SOLID
  5
295
330
13B
100
AcDbEntity
  8
0
 62
     0
100
AcDbTrace
 10
213.8739173666164
 20
491.3591315523127
 30
0.0
 11
214.7072506999497
 21
491.3591315523127
 31
0.0
 12
214.2905840332831
 22
493.8591315523124
 32
0.0
 13
214.2905840332831
 23
493.8591315523124
 33
0.0
  0
MTEXT
  5
296
330
13B
100
AcDbEntity
  8
0
 62
     0
100
AcDbMText
 10
209.665584033283
 20
423.3591315523126
 30
0.0
 40
8.0
 41
0.0
 46
0.0
 71
     5
 72
     1
  1
141
 11
0.0000000000000001
 21
1.0
 31
0.0
 73
     1
 44
1.0
  0
POINT
  5
297
330
13B
100
AcDbEntity
  8
Defpoints
 62
     0
100
AcDbPoint
 10
203.0912532458169
 20
352.8591315523126
 30
0.0
  0
POINT
  5
298
330
13B
100
AcDbEntity
  8
Defpoints
 62
     0
100
AcDbPoint
 10
203.0912532458169
 20
493.8591315523124
 30
0.0
  0
POINT
  5
299
330
13B
100
AcDbEntity
  8
Defpoints
 62
     0
100
AcDbPoint
 10
214.2905840332831
 20
493.8591315523124
 30
0.0
  0
ENDBLK
  5
146
330
13B
100
AcDbEntity
  8
0
100
AcDbBlockEnd
  0
BLOCK
  5
15D
330
153
100
AcDbEntity
  8
0
100
AcDbBlockBegin
  2
*D2
 70
     1
 10
0.0
 20
0.0
 30
0.0
  3
*D2
  1

  0
LINE
  5
160
330
153
100
AcDbEntity
  8
0
 62
     0
370
    -2
100
AcDbLine
 10
160.6168767754773
 20
388.8591315523125
 30
0.0
 11
159.5664140945186
 21
388.8591315523125
 31
0.0
  0
LINE
  5
161
330
153
100
AcDbEntity
  8
0
 62
     0
370
    -2
100
AcDbLine
 10
160.6168767754773
 20
529.6591315523126
 30
0.0
 11
159.5664140945187
 21
529.6591315523126
 31
0.0
  0
LINE
  5
162
330
153
100
AcDbEntity
  8
0
 62
     0
370
    -2
100
AcDbLine
 10
160.8164140945186
 20
391.3591315523125
 30
0.0
 11
160.8164140945187
 21
527.1591315523123
 31
0.0
  0
SOLID
  5
163
330
153
100
AcDbEntity
  8
0
 62
     0
100
AcDbTrace
 10
160.399747427852
 20
391.3591315523125
 30
0.0
 11
161.2330807611853
 21
391.3591315523125
 31
0.0
 12
160.8164140945186
 22
388.8591315523125
 32
0.0
 13
160.8164140945186
 23
388.8591315523125
 33
0.0
  0
SOLID
  5
164
330
153
100
AcDbEntity
  8
0
 62
     0
100
AcDbTrace
 10
160.399747427852
 20
527.1591315523123
 30
0.0
 11
161.2330807611853
 21
527.1591315523123
 31
0.0
 12
160.8164140945187
 22
529.6591315523126
 32
0.0
 13
160.8164140945187
 23
529.6591315523126
 33
0.0
  0
MTEXT
  5
165
330
153
100
AcDbEntity
  8
0
 62
     0
100
AcDbMText
 10
158.7330807611852
 20
459.2591315523126
 30
0.0
 40
2.5
 41
0.0
 46
0.0
 71
     5
 72
     1
  1
140,8
 11
0.0000000000000001
 21
1.0
 31
0.0
 73
     1
 44
1.0
  0
POINT
  5
166
330
153
100
AcDbEntity
  8
Defpoints
 62
     0
100
AcDbPoint
 10
161.2418767754773
 20
388.8591315523125
 30
0.0
  0
POINT
  5
167
330
153
100
AcDbEntity
  8
Defpoints
 62
     0
100
AcDbPoint
 10
161.2418767754773
 20
529.6591315523126
 30
0.0
  0
POINT
  5
168
330
153
100
AcDbEntity
  8
Defpoints
 62
     0
100
AcDbPoint
 10
160.8164140945187
 20
529.6591315523126
 30
0.0
  0
ENDBLK
  5
15E
330
153
100
AcDbEntity
  8
0
100
AcDbBlockEnd
  0
BLOCK
  5
1B9
330
1AF
100
AcDbEntity
  8
0
 62
     1
100
AcDbBlockBegin
  2
*D3
 70
     1
 10
0.0
 20
0.0
 30
0.0
  3
*D3
  1

  0
LINE
  5
1C6
330
1AF
100
AcDbEntity
  8
0
 62
     0
370
    -2
100
AcDbLine
 10
170.1957754462992
 20
352.8591315523126
 30
0.0
 11
161.160152094111
 21
352.8591315523126
 31
0.0
  0
LINE
  5
1C7
330
1AF
100
AcDbEntity
  8
0
 62
     0
370
    -2
100
AcDbLine
 10
170.1957754462991
 20
316.3591315523125
 30
0.0
 11
161.160152094111
 21
316.3591315523125
 31
0.0
  0
LINE
  5
1C8
330
1AF
100
AcDbEntity
  8
0
 62
     0
370
    -2
100
AcDbLine
 10
162.410152094111
 20
350.3591315523126
 30
0.0
 11
162.410152094111
 21
318.8591315523126
 31
0.0
  0
SOLID
  5
1C9
330
1AF
100
AcDbEntity
  8
0
 62
     0
100
AcDbTrace
 10
161.9934854274444
 20
350.3591315523126
 30
0.0
 11
162.8268187607777
 21
350.3591315523126
 31
0.0
 12
162.410152094111
 22
352.8591315523126
 32
0.0
 13
162.410152094111
 23
352.8591315523126
 33
0.0
  0
SOLID
  5
1CA
330
1AF
100
AcDbEntity
  8
0
 62
     0
100
AcDbTrace
 10
161.9934854274443
 20
318.8591315523126
 30
0.0
 11
162.8268187607776
 21
318.8591315523126
 31
0.0
 12
162.410152094111
 22
316.3591315523125
 32
0.0
 13
162.410152094111
 23
316.3591315523125
 33
0.0
  0
MTEXT
  5
1CB
330
1AF
100
AcDbEntity
  8
0
 62
     0
100
AcDbMText
 10
157.1184854274443
 20
334.6091315523127
 30
0.0
 40
8.0
 41
0.0
 46
0.0
 71
     5
 72
     1
  1
36,5
 11
0.0000000000000001
 21
1.0
 31
0.0
 73
     1
 44
1.0
  0
POINT
  5
1CC
330
1AF
100
AcDbEntity
  8
Defpoints
 62
     0
100
AcDbPoint
 10
170.8207754462992
 20
352.8591315523126
 30
0.0
  0
POINT
  5
1CD
330
1AF
100
AcDbEntity
  8
Defpoints
 62
     0
100
AcDbPoint
 10
170.8207754462991
 20
316.3591315523125
 30
0.0
  0
POINT
  5
1CE
330
1AF
100
AcDbEntity
  8
Defpoints
 62
     0
100
AcDbPoint
 10
162.410152094111
 20
316.3591315523125
 30
0.0
  0
ENDBLK
  5
1BA
330
1AF
100
AcDbEntity
  8
0
 62
     1
100
AcDbBlockEnd
  0
BLOCK
  5
1DD
330
1D1
100
AcDbEntity
  8
0
 62
     1
100
AcDbBlockBegin
  2
*D4
 70
     1
 10
0.0
 20
0.0
 30
0.0
  3
*D4
  1

  0
LINE
  5
1E0
330
1D1
100
AcDbEntity
  8
0
 62
     0
370
    -2
100
AcDbLine
 10
105.7802039763944
 20
422.6341315523126
 30
0.0
 11
105.7802039763944
 21
421.227171948616
 31
0.0
  0
LINE
  5
1E1
330
1D1
100
AcDbEntity
  8
0
 62
     0
370
    -2
100
AcDbLine
 10
103.7802039763944
 20
422.6341315523126
 30
0.0
 11
103.7802039763944
 21
421.227171948616
 31
0.0
  0
LINE
  5
1E2
330
1D1
100
AcDbEntity
  8
0
 62
     0
370
    -2
100
AcDbLine
 10
108.2802039763944
 20
422.477171948616
 30
0.0
 11
110.7802039763944
 21
422.477171948616
 31
0.0
  0
LINE
  5
1E3
330
1D1
100
AcDbEntity
  8
0
 62
     0
370
    -2
100
AcDbLine
 10
101.2802039763945
 20
422.477171948616
 30
0.0
 11
92.19687064306114
 21
422.477171948616
 31
0.0
  0
LINE
  5
1E4
330
1D1
100
AcDbEntity
  8
0
 62
     0
370
    -2
100
AcDbLine
 10
105.7802039763944
 20
422.477171948616
 30
0.0
 11
103.7802039763944
 21
422.477171948616
 31
0.0
  0
SOLID
  5
1E5
330
1D1
100
AcDbEntity
  8
0
 62
     0
100
AcDbTrace
 10
108.2802039763944
 20
422.8938386152828
 30
0.0
 11
108.2802039763944
 21
422.0605052819491
 31
0.0
 12
105.7802039763944
 22
422.477171948616
 32
0.0
 13
105.7802039763944
 23
422.477171948616
 33
0.0
  0
SOLID
  5
1E6
330
1D1
100
AcDbEntity
  8
0
 62
     0
100
AcDbTrace
 10
101.2802039763945
 20
422.8938386152828
 30
0.0
 11
101.2802039763945
 21
422.0605052819491
 31
0.0
 12
103.7802039763944
 22
422.477171948616
 32
0.0
 13
103.7802039763944
 23
422.477171948616
 33
0.0
  0
MTEXT
  5
1E7
330
1D1
100
AcDbEntity
  8
0
 62
     0
100
AcDbMText
 10
95.4885373097278
 20
427.1021719486161
 30
0.0
 40
8.0
 41
0.0
 46
0.0
 71
     5
 72
     1
  1
2
 73
     1
 44
1.0
  0
POINT
  5
1E8
330
1D1
100
AcDbEntity
  8
Defpoints
 62
     0
100
AcDbPoint
 10
105.7802039763944
 20
423.2591315523126
 30
0.0
  0
POINT
  5
1E9
330
1D1
100
AcDbEntity
  8
Defpoints
 62
     0
100
AcDbPoint
 10
103.7802039763944
 20
423.2591315523126
 30
0.0
  0
POINT
  5
1EA
330
1D1
100
AcDbEntity
  8
Defpoints
 62
     0
100
AcDbPoint
 10
103.7802039763944
 20
422.477171948616
 30
0.0
  0
ENDBLK
  5
1DE
330
1D1
100
AcDbEntity
  8
0
 62
     1
100
AcDbBlockEnd
  0
BLOCK
  5
22C
330
221
100
AcDbEntity
  8
0
 62
     1
100
AcDbBlockBegin
  2
*D5
 70
     1
 10
0.0
 20
0.0
 30
0.0
  3
*D5
  1

  0
LINE
  5
22F
330
221
100
AcDbEntity
  8
0
 62
     0
370
    -2
100
AcDbLine
 10
120.6552039763944
 20
512.3591315523124
 30
0.0
 11
116.9802009343107
 21
512.3591315523124
 31
0.0
  0
LINE
  5
230
330
221
100
AcDbEntity
  8
0
 62
     0
370
    -2
100
AcDbLine
 10
120.6552039763944
 20
529.8591315523124
 30
0.0
 11
116.9802009343107
 21
529.8591315523124
 31
0.0
  0
LINE
  5
231
330
221
100
AcDbEntity
  8
0
 62
     0
370
    -2
100
AcDbLine
 10
118.2302009343107
 20
514.8591315523124
 30
0.0
 11
118.2302009343107
 21
527.3591315523124
 31
0.0
  0
LINE
  5
232
330
221
100
AcDbEntity
  8
0
 62
     0
370
    -2
100
AcDbLine
 10
118.2302009343107
 20
529.8591315523124
 30
0.0
 11
118.2302009343107
 21
556.2757982189792
 31
0.0
  0
SOLID
  5
233
330
221
100
AcDbEntity
  8
0
 62
     0
100
AcDbTrace
 10
117.813534267644
 20
514.8591315523124
 30
0.0
 11
118.6468676009773
 21
514.8591315523124
 31
0.0
 12
118.2302009343107
 22
512.3591315523124
 32
0.0
 13
118.2302009343107
 23
512.3591315523124
 33
0.0
  0
SOLID
  5
234
330
221
100
AcDbEntity
  8
0
 62
     0
100
AcDbTrace
 10
117.813534267644
 20
527.3591315523124
 30
0.0
 11
118.6468676009773
 21
527.3591315523124
 31
0.0
 12
118.2302009343107
 22
529.8591315523124
 32
0.0
 13
118.2302009343107
 23
529.8591315523124
 33
0.0
  0
MTEXT
  5
235
330
221
100
AcDbEntity
  8
0
 62
     0
100
AcDbMText
 10
112.9385342676439
 20
544.3174648856459
 30
0.0
 40
8.0
 41
0.0
 46
0.0
 71
     5
 72
     1
  1
17,5
 11
0.0000000000000001
 21
1.0
 31
0.0
 73
     1
 44
1.0
  0
POINT
  5
236
330
221
100
AcDbEntity
  8
Defpoints
 62
     0
100
AcDbPoint
 10
121.2802039763944
 20
512.3591315523124
 30
0.0
  0
POINT
  5
237
330
221
100
AcDbEntity
  8
Defpoints
 62
     0
100
AcDbPoint
 10
121.2802039763944
 20
529.8591315523124
 30
0.0
  0
POINT
  5
238
330
221
100
AcDbEntity
  8
Defpoints
 62
     0
100
AcDbPoint
 10
118.2302009343107
 20
529.8591315523124
 30
0.0
  0
ENDBLK
  5
22D
330
221
100
AcDbEntity
  8
0
 62
     1
100
AcDbBlockEnd
  0
BLOCK
  5
247
330
23C
100
AcDbEntity
  8
0
 62
     1
100
AcDbBlockBegin
  2
*D6
 70
     1
 10
0.0
 20
0.0
 30
0.0
  3
*D6
  1

  0
LINE
  5
24A
330
23C
100
AcDbEntity
  8
0
 62
     0
370
    -2
100
AcDbLine
 10
120.6552039763944
 20
512.3591315523124
 30
0.0
 11
85.77552218734991
 21
512.3591315523124
 31
0.0
  0
LINE
  5
24B
330
23C
100
AcDbEntity
  8
0
 62
     0
370
    -2
100
AcDbLine
 10
103.1552039763944
 20
496.8591315523124
 30
0.0
 11
85.77552218734991
 21
496.8591315523124
 31
0.0
  0
LINE
  5
24C
330
23C
100
AcDbEntity
  8
0
 62
     0
370
    -2
100
AcDbLine
 10
87.02552218734991
 20
509.8591315523123
 30
0.0
 11
87.02552218734991
 21
499.3591315523125
 31
0.0
  0
LINE
  5
24D
330
23C
100
AcDbEntity
  8
0
 62
     0
370
    -2
100
AcDbLine
 10
87.02552218734991
 20
496.8591315523124
 30
0.0
 11
87.02552218734989
 21
470.4424648856456
 31
0.0
  0
SOLID
  5
24E
330
23C
100
AcDbEntity
  8
0
 62
     0
100
AcDbTrace
 10
86.60885552068323
 20
509.8591315523123
 30
0.0
 11
87.44218885401657
 21
509.8591315523123
 31
0.0
 12
87.02552218734991
 22
512.3591315523124
 32
0.0
 13
87.02552218734991
 23
512.3591315523124
 33
0.0
  0
SOLID
  5
24F
330
23C
100
AcDbEntity
  8
0
 62
     0
100
AcDbTrace
 10
86.60885552068323
 20
499.3591315523125
 30
0.0
 11
87.44218885401657
 21
499.3591315523125
 31
0.0
 12
87.02552218734991
 22
496.8591315523124
 32
0.0
 13
87.02552218734991
 23
496.8591315523124
 33
0.0
  0
MTEXT
  5
250
330
23C
100
AcDbEntity
  8
0
 62
     0
100
AcDbMText
 10
81.73385552068316
 20
482.400798218979
 30
0.0
 40
8.0
 41
0.0
 46
0.0
 71
     5
 72
     1
  1
15,5
 11
0.0000000000000001
 21
1.0
 31
0.0
 73
     1
 44
1.0
  0
POINT
  5
251
330
23C
100
AcDbEntity
  8
Defpoints
 62
     0
100
AcDbPoint
 10
121.2802039763944
 20
512.3591315523124
 30
0.0
  0
POINT
  5
252
330
23C
100
AcDbEntity
  8
Defpoints
 62
     0
100
AcDbPoint
 10
103.7802039763944
 20
496.8591315523124
 30
0.0
  0
POINT
  5
253
330
23C
100
AcDbEntity
  8
Defpoints
 62
     0
100
AcDbPoint
 10
87.02552218734991
 20
496.8591315523124
 30
0.0
  0
ENDBLK
  5
248
330
23C
100
AcDbEntity
  8
0
 62
     1
100
AcDbBlockEnd
  0
BLOCK
  5
263
330
257
100
AcDbEntity
  8
0
 62
     1
100
AcDbBlockBegin
  2
*D7
 70
     1
 10
0.0
 20
0.0
 30
0.0
  3
*D7
  1

  0
LINE
  5
266
330
257
100
AcDbEntity
  8
0
 62
     0
370
    -2
100
AcDbLine
 10
114.6552039763939
 20
458.2591315523116
 30
0.0
 11
98.85865774528792
 21
458.2591315523116
 31
0.0
  0
LINE
  5
267
330
257
100
AcDbEntity
  8
0
 62
     0
370
    -2
100
AcDbLine
 10
114.6552039763939
 20
458.3591315523125
 30
0.0
 11
98.85865774528792
 21
458.3591315523125
 31
0.0
  0
LINE
  5
268
330
257
100
AcDbEntity
  8
0
 62
     0
370
    -2
100
AcDbLine
 10
100.1086577452879
 20
455.7591315523118
 30
0.0
 11
100.1086577452879
 21
453.2591315523117
 31
0.0
  0
LINE
  5
269
330
257
100
AcDbEntity
  8
0
 62
     0
370
    -2
100
AcDbLine
 10
100.1086577452879
 20
460.8591315523124
 30
0.0
 11
100.1086577452879
 21
477.9424648856458
 31
0.0
  0
LINE
  5
26A
330
257
100
AcDbEntity
  8
0
 62
     0
370
    -2
100
AcDbLine
 10
100.1086577452879
 20
458.2591315523116
 30
0.0
 11
100.1086577452879
 21
458.3591315523125
 31
0.0
  0
SOLID
  5
26B
330
257
100
AcDbEntity
  8
0
 62
     0
100
AcDbTrace
 10
99.69199107862127
 20
455.7591315523118
 30
0.0
 11
100.5253244119546
 21
455.7591315523118
 31
0.0
 12
100.1086577452879
 22
458.2591315523116
 32
0.0
 13
100.1086577452879
 23
458.2591315523116
 33
0.0
  0
SOLID
  5
26C
330
257
100
AcDbEntity
  8
0
 62
     0
100
AcDbTrace
 10
99.69199107862127
 20
460.8591315523124
 30
0.0
 11
100.5253244119546
 21
460.8591315523124
 31
0.0
 12
100.1086577452879
 22
458.3591315523125
 32
0.0
 13
100.1086577452879
 23
458.3591315523125
 33
0.0
  0
MTEXT
  5
26D
330
257
100
AcDbEntity
  8
0
 62
     0
100
AcDbMText
 10
94.8169910786212
 20
470.6507982189791
 30
0.0
 40
8.0
 41
0.0
 46
0.0
 71
     5
 72
     1
  1
0,1
 11
0.0000000000000001
 21
1.0
 31
0.0
 73
     1
 44
1.0
  0
POINT
  5
26E
330
257
100
AcDbEntity
  8
Defpoints
 62
     0
100
AcDbPoint
 10
115.2802039763939
 20
458.2591315523116
 30
0.0
  0
POINT
  5
26F
330
257
100
AcDbEntity
  8
Defpoints
 62
     0
100
AcDbPoint
 10
115.2802039763939
 20
458.3591315523125
 30
0.0
  0
POINT
  5
270
330
257
100
AcDbEntity
  8
Defpoints
 62
     0
100
AcDbPoint
 10
100.1086577452879
 20
458.3591315523125
 30
0.0
  0
ENDBLK
  5
264
330
257
100
AcDbEntity
  8
0
 62
     1
100
AcDbBlockEnd
  0
BLOCK
  5
27F
330
274
100
AcDbEntity
  8
0
 62
     1
100
AcDbBlockBegin
  2
*D8
 70
     1
 10
0.0
 20
0.0
 30
0.0
  3
*D8
  1

  0
LINE
  5
282
330
274
100
AcDbEntity
  8
0
 62
     0
370
    -2
100
AcDbLine
 10
121.2802039763944
 20
512.9841315523123
 30
0.0
 11
121.2802039763944
 21
515.0927972949673
 31
0.0
  0
LINE
  5
283
330
274
100
AcDbEntity
  8
0
 62
     0
370
    -2
100
AcDbLine
 10
139.7802039763944
 20
512.9841315523123
 30
0.0
 11
139.7802039763944
 21
515.0927972949673
 31
0.0
  0
LINE
  5
284
330
274
100
AcDbEntity
  8
0
 62
     0
370
    -2
100
AcDbLine
 10
123.7802039763944
 20
513.8427972949673
 30
0.0
 11
137.2802039763944
 21
513.8427972949673
 31
0.0
  0
LINE
  5
285
330
274
100
AcDbEntity
  8
0
 62
     0
370
    -2
100
AcDbLine
 10
139.7802039763944
 20
513.8427972949673
 30
0.0
 11
166.1968706430611
 21
513.8427972949673
 31
0.0
  0
SOLID
  5
286
330
274
100
AcDbEntity
  8
0
 62
     0
100
AcDbTrace
 10
123.7802039763944
 20
514.2594639616342
 30
0.0
 11
123.7802039763944
 21
513.4261306283008
 31
0.0
 12
121.2802039763944
 22
513.8427972949673
 32
0.0
 13
121.2802039763944
 23
513.8427972949673
 33
0.0
  0
SOLID
  5
287
330
274
100
AcDbEntity
  8
0
 62
     0
100
AcDbTrace
 10
137.2802039763944
 20
514.2594639616342
 30
0.0
 11
137.2802039763944
 21
513.4261306283008
 31
0.0
 12
139.7802039763944
 22
513.8427972949673
 32
0.0
 13
139.7802039763944
 23
513.8427972949673
 33
0.0
  0
MTEXT
  5
288
330
274
100
AcDbEntity
  8
0
 62
     0
100
AcDbMText
 10
154.2385373097278
 20
519.1344639616342
 30
0.0
 40
8.0
 41
0.0
 46
0.0
 71
     5
 72
     1
  1
18,5
 73
     1
 44
1.0
  0
POINT
  5
289
330
274
100
AcDbEntity
  8
Defpoints
 62
     0
100
AcDbPoint
 10
121.2802039763944
 20
512.3591315523124
 30
0.0
  0
POINT
  5
28A
330
274
100
AcDbEntity
  8
Defpoints
 62
     0
100
AcDbPoint
 10
139.7802039763944
 20
512.3591315523124
 30
0.0
  0
POINT
  5
28B
330
274
100
AcDbEntity
  8
Defpoints
 62
     0
100
AcDbPoint
 10
139.7802039763944
 20
513.8427972949673
 30
0.0
  0
ENDBLK
  5
280
330
274
100
AcDbEntity
  8
0
 62
     1
100
AcDbBlockEnd
  0
BLOCK
  5
2A7
330
29D
100
AcDbEntity
  8
0
 62
     1
100
AcDbBlockBegin
  2
*D9
 70
     1
 10
0.0
 20
0.0
 30
0.0
  3
*D9
  1

  0
LINE
  5
2AA
330
29D
100
AcDbEntity
  8
0
 62
     0
370
    -2
100
AcDbLine
 10
120.6552039763944
 20
334.3591315523127
 30
0.0
 11
115.0308064549776
 21
334.3591315523127
 31
0.0
  0
LINE
  5
2AB
330
29D
100
AcDbEntity
  8
0
 62
     0
370
    -2
100
AcDbLine
 10
120.6552039763944
 20
316.3591315523127
 30
0.0
 11
115.0308064549776
 21
316.3591315523127
 31
0.0
  0
LINE
  5
2AC
330
29D
100
AcDbEntity
  8
0
 62
     0
370
    -2
100
AcDbLine
 10
116.2808064549776
 20
331.8591315523126
 30
0.0
 11
116.2808064549776
 21
318.8591315523126
 31
0.0
  0
SOLID
  5
2AD
330
29D
100
AcDbEntity
  8
0
 62
     0
100
AcDbTrace
 10
115.864139788311
 20
331.8591315523126
 30
0.0
 11
116.6974731216443
 21
331.8591315523126
 31
0.0
 12
116.2808064549776
 22
334.3591315523127
 32
0.0
 13
116.2808064549776
 23
334.3591315523127
 33
0.0
  0
SOLID
  5
2AE
330
29D
100
AcDbEntity
  8
0
 62
     0
100
AcDbTrace
 10
115.864139788311
 20
318.8591315523126
 30
0.0
 11
116.6974731216443
 21
318.8591315523126
 31
0.0
 12
116.2808064549776
 22
316.3591315523127
 32
0.0
 13
116.2808064549776
 23
316.3591315523127
 33
0.0
  0
MTEXT
  5
2AF
330
29D
100
AcDbEntity
  8
0
 62
     0
100
AcDbMText
 10
111.6558064549776
 20
325.3591315523126
 30
0.0
 40
8.0
 41
0.0
 46
0.0
 71
     5
 72
     1
  1
18
 11
0.0000000000000001
 21
1.0
 31
0.0
 73
     1
 44
1.0
  0
POINT
  5
2B0
330
29D
100
AcDbEntity
  8
Defpoints
 62
     0
100
AcDbPoint
 10
121.2802039763944
 20
334.3591315523127
 30
0.0
  0
POINT
  5
2B1
330
29D
100
AcDbEntity
  8
Defpoints
 62
     0
100
AcDbPoint
 10
121.2802039763944
 20
316.3591315523127
 30
0.0
  0
POINT
  5
2B2
330
29D
100
AcDbEntity
  8
Defpoints
 62
     0
100
AcDbPoint
 10
116.2808064549776
 20
316.3591315523127
 30
0.0
  0
ENDBLK
  5
2A8
330
29D
100
AcDbEntity
  8
0
 62
     1
100
AcDbBlockEnd
  0
BLOCK
  5
2C1
330
2B6
100
AcDbEntity
  8
0
 62
     1
100
AcDbBlockBegin
  2
*D10
 70
     1
 10
0.0
 20
0.0
 30
0.0
  3
*D10
  1

  0
LINE
  5
2C4
330
2B6
100
AcDbEntity
  8
0
 62
     0
370
    -2
100
AcDbLine
 10
106.6489803846448
 20
349.8591315523126
 30
0.0
 11
58.21016465120056
 21
349.8591315523126
 31
0.0
  0
LINE
  5
2C5
330
2B6
100
AcDbEntity
  8
0
 62
     0
370
    -2
100
AcDbLine
 10
120.6552039763944
 20
334.3591315523127
 30
0.0
 11
58.21016465120054
 21
334.3591315523127
 31
0.0
  0
LINE
  5
2C6
330
2B6
100
AcDbEntity
  8
0
 62
     0
370
    -2
100
AcDbLine
 10
59.46016465120056
 20
347.3591315523127
 30
0.0
 11
59.46016465120056
 21
336.8591315523127
 31
0.0
  0
LINE
  5
2C7
330
2B6
100
AcDbEntity
  8
0
 62
     0
370
    -2
100
AcDbLine
 10
59.46016465120054
 20
334.3591315523127
 30
0.0
 11
59.46016465120054
 21
307.942464885646
 31
0.0
  0
SOLID
  5
2C8
330
2B6
100
AcDbEntity
  8
0
 62
     0
100
AcDbTrace
 10
59.04349798453389
 20
347.3591315523127
 30
0.0
 11
59.87683131786722
 21
347.3591315523127
 31
0.0
 12
59.46016465120056
 22
349.8591315523126
 32
0.0
 13
59.46016465120056
 23
349.8591315523126
 33
0.0
  0
SOLID
  5
2C9
330
2B6
100
AcDbEntity
  8
0
 62
     0
100
AcDbTrace
 10
59.04349798453389
 20
336.8591315523127
 30
0.0
 11
59.87683131786722
 21
336.8591315523127
 31
0.0
 12
59.46016465120054
 22
334.3591315523127
 32
0.0
 13
59.46016465120054
 23
334.3591315523127
 33
0.0
  0
MTEXT
  5
2CA
330
2B6
100
AcDbEntity
  8
0
 62
     0
100
AcDbMText
 10
54.16849798453384
 20
319.9007982189793
 30
0.0
 40
8.0
 41
0.0
 46
0.0
 71
     5
 72
     1
  1
15,5
 11
0.0000000000000001
 21
1.0
 31
0.0
 73
     1
 44
1.0
  0
POINT
  5
2CB
330
2B6
100
AcDbEntity
  8
Defpoints
 62
     0
100
AcDbPoint
 10
107.2739803846448
 20
349.8591315523126
 30
0.0
  0
POINT
  5
2CC
330
2B6
100
AcDbEntity
  8
Defpoints
 62
     0
100
AcDbPoint
 10
121.2802039763944
 20
334.3591315523127
 30
0.0
  0
POINT
  5
2CD
330
2B6
100
AcDbEntity
  8
Defpoints
 62
     0
100
AcDbPoint
 10
59.46016465120054
 20
334.3591315523127
 30
0.0
  0
ENDBLK
  5
2C2
330
2B6
100
AcDbEntity
  8
0
 62
     1
100
AcDbBlockEnd
  0
BLOCK
  5
350
330
346
100
AcDbEntity
  8
0
 62
     1
100
AcDbBlockBegin
  2
*D11
 70
     1
 10
0.0
 20
0.0
 30
0.0
  3
*D11
  1

  0
LINE
  5
352
330
346
100
AcDbEntity
  8
0
 62
     0
370
    -2
100
AcDbLine
 10
524.6607244600046
 20
352.8591315523126
 30
0.0
 11
536.4850552474709
 21
352.8591315523126
 31
0.0
  0
LINE
  5
353
330
346
100
AcDbEntity
  8
0
 62
     0
370
    -2
100
AcDbLine
 10
524.6607244600046
 20
493.8591315523124
 30
0.0
 11
536.4850552474709
 21
493.8591315523124
 31
0.0
  0
LINE
  5
354
330
346
100
AcDbEntity
  8
0
 62
     0
370
    -2
100
AcDbLine
 10
535.2350552474709
 20
355.3591315523127
 30
0.0
 11
535.2350552474709
 21
491.3591315523124
 31
0.0
  0
SOLID
  5
355
330
346
100
AcDbEntity
  8
0
 62
     0
100
AcDbTrace
 10
534.8183885808042
 20
355.3591315523127
 30
0.0
 11
535.6517219141375
 21
355.3591315523127
 31
0.0
 12
535.2350552474709
 22
352.8591315523126
 32
0.0
 13
535.2350552474709
 23
352.8591315523126
 33
0.0
  0
SOLID
  5
356
330
346
100
AcDbEntity
  8
0
 62
     0
100
AcDbTrace
 10
534.8183885808042
 20
491.3591315523124
 30
0.0
 11
535.6517219141375
 21
491.3591315523124
 31
0.0
 12
535.2350552474709
 22
493.8591315523124
 32
0.0
 13
535.2350552474709
 23
493.8591315523124
 33
0.0
  0
MTEXT
  5
357
330
346
100
AcDbEntity
  8
0
 62
     0
100
AcDbMText
 10
530.6100552474706
 20
423.3591315523126
 30
0.0
 40
8.0
 41
0.0
 46
0.0
 71
     5
 72
     1
  1
141
 11
0.0000000000000001
 21
1.0
 31
0.0
 73
     1
 44
1.0
  0
POINT
  5
358
330
346
100
AcDbEntity
  8
Defpoints
 62
     0
100
AcDbPoint
 10
524.0357244600046
 20
352.8591315523126
 30
0.0
  0
POINT
  5
359
330
346
100
AcDbEntity
  8
Defpoints
 62
     0
100
AcDbPoint
 10
524.0357244600046
 20
493.8591315523124
 30
0.0
  0
POINT
  5
35A
330
346
100
AcDbEntity
  8
Defpoints
 62
     0
100
AcDbPoint
 10
535.2350552474709
 20
493.8591315523124
 30
0.0
  0
ENDBLK
  5
351
330
346
100
AcDbEntity
  8
0
 62
     1
100
AcDbBlockEnd
  0
BLOCK
  5
365
330
35B
100
AcDbEntity
  8
0
 62
     1
100
AcDbBlockBegin
  2
*D12
 70
     1
 10
0.0
 20
0.0
 30
0.0
  3
*D12
  1

  0
LINE
  5
35C
330
35B
100
AcDbEntity
  8
0
 62
     0
370
    -2
100
AcDbLine
 10
491.140246660487
 20
352.8591315523126
 30
0.0
 11
482.1046233082988
 21
352.8591315523126
 31
0.0
  0
LINE
  5
35D
330
35B
100
AcDbEntity
  8
0
 62
     0
370
    -2
100
AcDbLine
 10
491.1402466604869
 20
316.3591315523125
 30
0.0
 11
482.1046233082988
 21
316.3591315523125
 31
0.0
  0
LINE
  5
35E
330
35B
100
AcDbEntity
  8
0
 62
     0
370
    -2
100
AcDbLine
 10
483.3546233082988
 20
350.3591315523126
 30
0.0
 11
483.3546233082988
 21
318.8591315523126
 31
0.0
  0
SOLID
  5
35F
330
35B
100
AcDbEntity
  8
0
 62
     0
100
AcDbTrace
 10
482.9379566416322
 20
350.3591315523126
 30
0.0
 11
483.7712899749655
 21
350.3591315523126
 31
0.0
 12
483.3546233082988
 22
352.8591315523126
 32
0.0
 13
483.3546233082988
 23
352.8591315523126
 33
0.0
  0
SOLID
  5
360
330
35B
100
AcDbEntity
  8
0
 62
     0
100
AcDbTrace
 10
482.9379566416322
 20
318.8591315523126
 30
0.0
 11
483.7712899749655
 21
318.8591315523126
 31
0.0
 12
483.3546233082988
 22
316.3591315523125
 32
0.0
 13
483.3546233082988
 23
316.3591315523125
 33
0.0
  0
MTEXT
  5
361
330
35B
100
AcDbEntity
  8
0
 62
     0
100
AcDbMText
 10
478.0629566416322
 20
334.6091315523127
 30
0.0
 40
8.0
 41
0.0
 46
0.0
 71
     5
 72
     1
  1
36,5
 11
0.0000000000000001
 21
1.0
 31
0.0
 73
     1
 44
1.0
  0
POINT
  5
362
330
35B
100
AcDbEntity
  8
Defpoints
 62
     0
100
AcDbPoint
 10
491.7652466604869
 20
352.8591315523126
 30
0.0
  0
POINT
  5
363
330
35B
100
AcDbEntity
  8
Defpoints
 62
     0
100
AcDbPoint
 10
491.7652466604869
 20
316.3591315523125
 30
0.0
  0
POINT
  5
364
330
35B
100
AcDbEntity
  8
Defpoints
 62
     0
100
AcDbPoint
 10
483.3546233082988
 20
316.3591315523125
 30
0.0
  0
ENDBLK
  5
366
330
35B
100
AcDbEntity
  8
0
 62
     1
100
AcDbBlockEnd
  0
BLOCK
  5
372
330
367
100
AcDbEntity
  8
0
 62
     1
100
AcDbBlockBegin
  2
*D13
 70
     1
 10
0.0
 20
0.0
 30
0.0
  3
*D13
  1

  0
LINE
  5
368
330
367
100
AcDbEntity
  8
0
 62
     0
370
    -2
100
AcDbLine
 10
441.599675190582
 20
512.3591315523124
 30
0.0
 11
437.9246721484985
 21
512.3591315523124
 31
0.0
  0
LINE
  5
369
330
367
100
AcDbEntity
  8
0
 62
     0
370
    -2
100
AcDbLine
 10
441.599675190582
 20
529.8591315523124
 30
0.0
 11
437.9246721484985
 21
529.8591315523124
 31
0.0
  0
LINE
  5
36A
330
367
100
AcDbEntity
  8
0
 62
     0
370
    -2
100
AcDbLine
 10
439.1746721484985
 20
514.8591315523124
 30
0.0
 11
439.1746721484985
 21
527.3591315523124
 31
0.0
  0
LINE
  5
36B
330
367
100
AcDbEntity
  8
0
 62
     0
370
    -2
100
AcDbLine
 10
439.1746721484985
 20
529.8591315523124
 30
0.0
 11
439.1746721484985
 21
556.275798218979
 31
0.0
  0
SOLID
  5
36C
330
367
100
AcDbEntity
  8
0
 62
     0
100
AcDbTrace
 10
438.7580054818318
 20
514.8591315523124
 30
0.0
 11
439.5913388151651
 21
514.8591315523124
 31
0.0
 12
439.1746721484985
 22
512.3591315523124
 32
0.0
 13
439.1746721484985
 23
512.3591315523124
 33
0.0
  0
SOLID
  5
36D
330
367
100
AcDbEntity
  8
0
 62
     0
100
AcDbTrace
 10
438.7580054818318
 20
527.3591315523124
 30
0.0
 11
439.5913388151651
 21
527.3591315523124
 31
0.0
 12
439.1746721484985
 22
529.8591315523124
 32
0.0
 13
439.1746721484985
 23
529.8591315523124
 33
0.0
  0
MTEXT
  5
36E
330
367
100
AcDbEntity
  8
0
 62
     0
100
AcDbMText
 10
433.8830054818315
 20
544.3174648856459
 30
0.0
 40
8.0
 41
0.0
 46
0.0
 71
     5
 72
     1
  1
17,5
 11
0.0000000000000001
 21
1.0
 31
0.0
 73
     1
 44
1.0
  0
POINT
  5
36F
330
367
100
AcDbEntity
  8
Defpoints
 62
     0
100
AcDbPoint
 10
442.2246751905823
 20
512.3591315523124
 30
0.0
  0
POINT
  5
370
330
367
100
AcDbEntity
  8
Defpoints
 62
     0
100
AcDbPoint
 10
442.2246751905823
 20
529.8591315523124
 30
0.0
  0
POINT
  5
371
330
367
100
AcDbEntity
  8
Defpoints
 62
     0
100
AcDbPoint
 10
439.1746721484985
 20
529.8591315523124
 30
0.0
  0
ENDBLK
  5
373
330
367
100
AcDbEntity
  8
0
 62
     1
100
AcDbBlockEnd
  0
BLOCK
  5
37F
330
374
100
AcDbEntity
  8
0
 62
     1
100
AcDbBlockBegin
  2
*D14
 70
     1
 10
0.0
 20
0.0
 30
0.0
  3
*D14
  1

  0
LINE
  5
375
330
374
100
AcDbEntity
  8
0
 62
     0
370
    -2
100
AcDbLine
 10
441.599675190582
 20
512.3591315523124
 30
0.0
 11
406.7199934015376
 21
512.3591315523124
 31
0.0
  0
LINE
  5
376
330
374
100
AcDbEntity
  8
0
 62
     0
370
    -2
100
AcDbLine
 10
424.0996751905822
 20
496.8591315523124
 30
0.0
 11
406.7199934015376
 21
496.8591315523124
 31
0.0
  0
LINE
  5
377
330
374
100
AcDbEntity
  8
0
 62
     0
370
    -2
100
AcDbLine
 10
407.9699934015376
 20
509.8591315523123
 30
0.0
 11
407.9699934015376
 21
499.3591315523124
 31
0.0
  0
LINE
  5
378
330
374
100
AcDbEntity
  8
0
 62
     0
370
    -2
100
AcDbLine
 10
407.9699934015376
 20
496.8591315523124
 30
0.0
 11
407.9699934015376
 21
470.4424648856456
 31
0.0
  0
SOLID
  5
379
330
374
100
AcDbEntity
  8
0
 62
     0
100
AcDbTrace
 10
407.553326734871
 20
509.8591315523123
 30
0.0
 11
408.3866600682043
 21
509.8591315523123
 31
0.0
 12
407.9699934015376
 22
512.3591315523124
 32
0.0
 13
407.9699934015376
 23
512.3591315523124
 33
0.0
  0
SOLID
  5
37A
330
374
100
AcDbEntity
  8
0
 62
     0
100
AcDbTrace
 10
407.553326734871
 20
499.3591315523124
 30
0.0
 11
408.3866600682043
 21
499.3591315523124
 31
0.0
 12
407.9699934015376
 22
496.8591315523124
 32
0.0
 13
407.9699934015376
 23
496.8591315523124
 33
0.0
  0
MTEXT
  5
37B
330
374
100
AcDbEntity
  8
0
 62
     0
100
AcDbMText
 10
402.678326734871
 20
482.400798218979
 30
0.0
 40
8.0
 41
0.0
 46
0.0
 71
     5
 72
     1
  1
15,5
 11
0.0000000000000001
 21
1.0
 31
0.0
 73
     1
 44
1.0
  0
POINT
  5
37C
330
374
100
AcDbEntity
  8
Defpoints
 62
     0
100
AcDbPoint
 10
442.2246751905823
 20
512.3591315523124
 30
0.0
  0
POINT
  5
37D
330
374
100
AcDbEntity
  8
Defpoints
 62
     0
100
AcDbPoint
 10
424.7246751905822
 20
496.8591315523124
 30
0.0
  0
POINT
  5
37E
330
374
100
AcDbEntity
  8
Defpoints
 62
     0
100
AcDbPoint
 10
407.9699934015376
 20
496.8591315523124
 30
0.0
  0
ENDBLK
  5
380
330
374
100
AcDbEntity
  8
0
 62
     1
100
AcDbBlockEnd
  0
BLOCK
  5
38C
330
381
100
AcDbEntity
  8
0
 62
     1
100
AcDbBlockBegin
  2
*D15
 70
     1
 10
0.0
 20
0.0
 30
0.0
  3
*D15
  1

  0
LINE
  5
382
330
381
100
AcDbEntity
  8
0
 62
     0
370
    -2
100
AcDbLine
 10
442.2246751905823
 20
512.9841315523123
 30
0.0
 11
442.2246751905823
 21
515.0927972949673
 31
0.0
  0
LINE
  5
383
330
381
100
AcDbEntity
  8
0
 62
     0
370
    -2
100
AcDbLine
 10
460.7246751905822
 20
512.9841315523123
 30
0.0
 11
460.7246751905822
 21
515.0927972949673
 31
0.0
  0
LINE
  5
384
330
381
100
AcDbEntity
  8
0
 62
     0
370
    -2
100
AcDbLine
 10
444.724675190582
 20
513.8427972949673
 30
0.0
 11
458.2246751905822
 21
513.8427972949673
 31
0.0
  0
LINE
  5
385
330
381
100
AcDbEntity
  8
0
 62
     0
370
    -2
100
AcDbLine
 10
460.7246751905822
 20
513.8427972949673
 30
0.0
 11
487.1413418572488
 21
513.8427972949673
 31
0.0
  0
SOLID
  5
386
330
381
100
AcDbEntity
  8
0
 62
     0
100
AcDbTrace
 10
444.724675190582
 20
514.259463961634
 30
0.0
 11
444.724675190582
 21
513.4261306283007
 31
0.0
 12
442.2246751905823
 22
513.8427972949673
 32
0.0
 13
442.2246751905823
 23
513.8427972949673
 33
0.0
  0
SOLID
  5
387
330
381
100
AcDbEntity
  8
0
 62
     0
100
AcDbTrace
 10
458.2246751905822
 20
514.259463961634
 30
0.0
 11
458.2246751905822
 21
513.4261306283007
 31
0.0
 12
460.7246751905822
 22
513.8427972949673
 32
0.0
 13
460.7246751905822
 23
513.8427972949673
 33
0.0
  0
MTEXT
  5
388
330
381
100
AcDbEntity
  8
0
 62
     0
100
AcDbMText
 10
475.1830085239156
 20
519.1344639616338
 30
0.0
 40
8.0
 41
0.0
 46
0.0
 71
     5
 72
     1
  1
18,5
 73
     1
 44
1.0
  0
POINT
  5
389
330
381
100
AcDbEntity
  8
Defpoints
 62
     0
100
AcDbPoint
 10
442.2246751905823
 20
512.3591315523124
 30
0.0
  0
POINT
  5
38A
330
381
100
AcDbEntity
  8
Defpoints
 62
     0
100
AcDbPoint
 10
460.7246751905822
 20
512.3591315523124
 30
0.0
  0
POINT
  5
38B
330
381
100
AcDbEntity
  8
Defpoints
 62
     0
100
AcDbPoint
 10
460.7246751905822
 20
513.8427972949673
 30
0.0
  0
ENDBLK
  5
38D
330
381
100
AcDbEntity
  8
0
 62
     1
100
AcDbBlockEnd
  0
BLOCK
  5
398
330
38E
100
AcDbEntity
  8
0
 62
     1
100
AcDbBlockBegin
  2
*D16
 70
     1
 10
0.0
 20
0.0
 30
0.0
  3
*D16
  1

  0
LINE
  5
38F
330
38E
100
AcDbEntity
  8
0
 62
     0
370
    -2
100
AcDbLine
 10
441.599675190582
 20
334.3591315523127
 30
0.0
 11
435.9752776691653
 21
334.3591315523127
 31
0.0
  0
LINE
  5
390
330
38E
100
AcDbEntity
  8
0
 62
     0
370
    -2
100
AcDbLine
 10
441.599675190582
 20
316.3591315523127
 30
0.0
 11
435.9752776691653
 21
316.3591315523127
 31
0.0
  0
LINE
  5
391
330
38E
100
AcDbEntity
  8
0
 62
     0
370
    -2
100
AcDbLine
 10
437.2252776691653
 20
331.8591315523127
 30
0.0
 11
437.2252776691653
 21
318.8591315523127
 31
0.0
  0
SOLID
  5
392
330
38E
100
AcDbEntity
  8
0
 62
     0
100
AcDbTrace
 10
436.8086110024988
 20
331.8591315523127
 30
0.0
 11
437.6419443358321
 21
331.8591315523127
 31
0.0
 12
437.2252776691653
 22
334.3591315523127
 32
0.0
 13
437.2252776691653
 23
334.3591315523127
 33
0.0
  0
SOLID
  5
393
330
38E
100
AcDbEntity
  8
0
 62
     0
100
AcDbTrace
 10
436.8086110024988
 20
318.8591315523127
 30
0.0
 11
437.6419443358321
 21
318.8591315523127
 31
0.0
 12
437.2252776691653
 22
316.3591315523127
 32
0.0
 13
437.2252776691653
 23
316.3591315523127
 33
0.0
  0
MTEXT
  5
394
330
38E
100
AcDbEntity
  8
0
 62
     0
100
AcDbMText
 10
432.6002776691653
 20
325.3591315523128
 30
0.0
 40
8.0
 41
0.0
 46
0.0
 71
     5
 72
     1
  1
18
 11
0.0000000000000001
 21
1.0
 31
0.0
 73
     1
 44
1.0
  0
POINT
  5
395
330
38E
100
AcDbEntity
  8
Defpoints
 62
     0
100
AcDbPoint
 10
442.2246751905823
 20
334.3591315523127
 30
0.0
  0
POINT
  5
396
330
38E
100
AcDbEntity
  8
Defpoints
 62
     0
100
AcDbPoint
 10
442.2246751905823
 20
316.3591315523127
 30
0.0
  0
POINT
  5
397
330
38E
100
AcDbEntity
  8
Defpoints
 62
     0
100
AcDbPoint
 10
437.2252776691653
 20
316.3591315523127
 30
0.0
  0
ENDBLK
  5
399
330
38E
100
AcDbEntity
  8
0
 62
     1
100
AcDbBlockEnd
  0
BLOCK
  5
3A5
330
39A
100
AcDbEntity
  8
0
 62
     1
100
AcDbBlockBegin
  2
*D17
 70
     1
 10
0.0
 20
0.0
 30
0.0
  3
*D17
  1

  0
LINE
  5
39B
330
39A
100
AcDbEntity
  8
0
 62
     0
370
    -2
100
AcDbLine
 10
427.5934515988326
 20
349.8591315523126
 30
0.0
 11
379.1546358653884
 21
349.8591315523127
 31
0.0
  0
LINE
  5
39C
330
39A
100
AcDbEntity
  8
0
 62
     0
370
    -2
100
AcDbLine
 10
441.599675190582
 20
334.3591315523127
 30
0.0
 11
379.1546358653884
 21
334.3591315523128
 31
0.0
  0
LINE
  5
39D
330
39A
100
AcDbEntity
  8
0
 62
     0
370
    -2
100
AcDbLine
 10
380.4046358653884
 20
347.3591315523127
 30
0.0
 11
380.4046358653884
 21
336.8591315523127
 31
0.0
  0
LINE
  5
39E
330
39A
100
AcDbEntity
  8
0
 62
     0
370
    -2
100
AcDbLine
 10
380.4046358653884
 20
334.3591315523128
 30
0.0
 11
380.4046358653884
 21
307.9424648856461
 31
0.0
  0
SOLID
  5
39F
330
39A
100
AcDbEntity
  8
0
 62
     0
100
AcDbTrace
 10
379.9879691987217
 20
347.3591315523127
 30
0.0
 11
380.8213025320551
 21
347.3591315523127
 31
0.0
 12
380.4046358653884
 22
349.8591315523127
 32
0.0
 13
380.4046358653884
 23
349.8591315523127
 33
0.0
  0
SOLID
  5
3A0
330
39A
100
AcDbEntity
  8
0
 62
     0
100
AcDbTrace
 10
379.9879691987217
 20
336.8591315523127
 30
0.0
 11
380.8213025320551
 21
336.8591315523127
 31
0.0
 12
380.4046358653884
 22
334.3591315523128
 32
0.0
 13
380.4046358653884
 23
334.3591315523128
 33
0.0
  0
MTEXT
  5
3A1
330
39A
100
AcDbEntity
  8
0
 62
     0
100
AcDbMText
 10
375.1129691987217
 20
319.9007982189795
 30
0.0
 40
8.0
 41
0.0
 46
0.0
 71
     5
 72
     1
  1
15,5
 11
0.0000000000000001
 21
1.0
 31
0.0
 73
     1
 44
1.0
  0
POINT
  5
3A2
330
39A
100
AcDbEntity
  8
Defpoints
 62
     0
100
AcDbPoint
 10
428.2184515988326
 20
349.8591315523126
 30
0.0
  0
POINT
  5
3A3
330
39A
100
AcDbEntity
  8
Defpoints
 62
     0
100
AcDbPoint
 10
442.2246751905823
 20
334.3591315523127
 30
0.0
  0
POINT
  5
3A4
330
39A
100
AcDbEntity
  8
Defpoints
 62
     0
100
AcDbPoint
 10
380.4046358653884
 20
334.3591315523128
 30
0.0
  0
ENDBLK
  5
3A6
330
39A
100
AcDbEntity
  8
0
 62
     1
100
AcDbBlockEnd
  0
ENDSEC
  0
SECTION
  2
ENTITIES
  0
LINE
  5
12C
330
1F
100
AcDbEntity
  8
0
 62
     2
100
AcDbLine
 10
280.7802039763944
 20
352.8591315523125
 30
0.0
 11
280.7802039763944
 21
316.3591315523125
 31
0.0
  0
LINE
  5
12D
330
1F
100
AcDbEntity
  8
0
 62
     2
100
AcDbLine
 10
139.7802039763944
 20
352.8591315523126
 30
0.0
 11
139.7802039763944
 21
316.3591315523127
 31
0.0
  0
LINE
  5
12E
330
1F
100
AcDbEntity
  8
0
 62
     1
100
AcDbLine
 10
139.7802039763944
 20
352.8591315523126
 30
0.0
 11
103.7802039763944
 21
352.8591315523126
 31
0.0
  0
LINE
  5
12F
330
1F
100
AcDbEntity
  8
0
 62
     1
100
AcDbLine
 10
280.7802039763944
 20
352.8591315523125
 30
0.0
 11
316.7802039763945
 21
352.8591315523125
 31
0.0
  0
LINE
  5
130
330
1F
100
AcDbEntity
  8
0
 62
     2
100
AcDbLine
 10
280.7802039763944
 20
493.8591315523124
 30
0.0
 11
280.7802039763944
 21
529.8591315523124
 31
0.0
  0
LINE
  5
131
102
{ACAD_REACTORS
330
28C
102
}
330
1F
100
AcDbEntity
  8
0
 62
     2
100
AcDbLine
 10
139.7802039763944
 20
493.8591315523124
 30
0.0
 11
139.7802039763944
 21
529.8591315523124
 31
0.0
  0
LINE
  5
132
330
1F
100
AcDbEntity
  8
0
 62
     1
100
AcDbLine
 10
139.7802039763944
 20
493.8591315523124
 30
0.0
 11
103.7802039763945
 21
493.8591315523124
 31
0.0
  0
LINE
  5
133
330
1F
100
AcDbEntity
  8
0
 62
     1
100
AcDbLine
 10
280.7802039763944
 20
493.8591315523124
 30
0.0
 11
316.7802039763945
 21
493.8591315523124
 31
0.0
  0
LINE
  5
134
102
{ACAD_REACTORS
330
239
102
}
330
1F
100
AcDbEntity
  8
0
 62
     1
100
AcDbLine
 10
316.7802039763945
 20
529.8591315523124
 30
0.0
 11
103.7802039763945
 21
529.8591315523124
 31
0.0
  0
LINE
  5
135
330
1F
100
AcDbEntity
  8
0
 62
     1
100
AcDbLine
 10
103.7802039763945
 20
493.8591315523124
 30
0.0
 11
103.7802039763944
 21
352.8591315523126
 31
0.0
  0
LINE
  5
136
102
{ACAD_REACTORS
330
2B3
102
}
330
1F
100
AcDbEntity
  8
0
 62
     1
100
AcDbLine
 10
103.7802039763944
 20
316.3591315523127
 30
0.0
 11
139.7802039763944
 21
316.3591315523127
 31
0.0
  0
LINE
  5
137
330
1F
100
AcDbEntity
  8
0
 62
     1
100
AcDbLine
 10
316.7802039763945
 20
352.8591315523125
 30
0.0
 11
316.7802039763945
 21
493.8591315523124
 31
0.0
  0
DIMENSION
  5
139
330
1F
100
AcDbEntity
  8
0
 62
     1
100
AcDbDimension
  2
*D1
 10
214.2905840332831
 20
493.8591315523124
 30
0.0
 11
209.665584033283
 21
423.3591315523126
 31
0.0
 70
    32
 71
     5
 42
141.0
 73
     0
 74
     0
 75
     0
  3
ISO-25
100
AcDbAlignedDimension
 13
203.0912532458169
 23
352.8591315523126
 33
0.0
 14
203.0912532458169
 24
493.8591315523124
 34
0.0
 50
270.0
100
AcDbRotatedDimension
  0
LINE
  5
175
330
1F
100
AcDbEntity
  8
0
 62
     2
100
AcDbLine
 10
281.2802039763944
 20
316.3591315523125
 30
0.0
 11
281.2802039763944
 21
175.5591315523123
 31
0.0
  0
LINE
  5
176
330
1F
100
AcDbEntity
  8
0
 62
     2
100
AcDbLine
 10
139.2802039763944
 20
316.3591315523127
 30
0.0
 11
139.2802039763944
 21
175.5591315523123
 31
0.0
  0
LINE
  5
177
330
1F
100
AcDbEntity
  8
0
 62
     1
100
AcDbLine
 10
280.7802039763944
 20
316.3591315523125
 30
0.0
 11
316.7802039763945
 21
316.3591315523125
 31
0.0
  0
LINE
  5
178
102
{ACAD_REACTORS
330
1C5
102
}
330
1F
100
AcDbEntity
  8
0
 62
     2
100
AcDbLine
 10
280.7802039763944
 20
316.3591315523125
 30
0.0
 11
139.7802039763944
 21
316.3591315523127
 31
0.0
  0
LINE
  5
196
330
1F
100
AcDbEntity
  8
0
 62
     1
100
AcDbLine
 10
145.3240424840955
 20
155.5591315523124
 30
0.0
 11
275.2363654686933
 21
155.5591315523124
 31
0.0
  0
LINE
  5
198
330
1F
100
AcDbEntity
  8
0
 62
     1
100
AcDbLine
 10
139.2802039763944
 20
175.5591315523123
 30
0.0
 11
142.3696192250589
 21
158.0381870193116
 31
0.0
  0
LINE
  5
199
330
1F
100
AcDbEntity
  8
0
 62
     1
100
AcDbLine
 10
281.2802039763945
 20
175.5591315523125
 30
0.0
 11
278.1907887277299
 21
158.0381870193117
 31
0.0
  0
LINE
  5
19A
330
1F
100
AcDbEntity
  8
0
 62
     1
100
AcDbLine
 10
139.2802039763947
 20
175.5591315523123
 30
0.0
 11
125.7716867817172
 21
175.5591315523123
 31
0.0
  0
LINE
  5
19B
330
1F
100
AcDbEntity
  8
0
 62
     1
100
AcDbLine
 10
281.2802039763945
 20
175.5591315523125
 30
0.0
 11
294.7887211710721
 21
175.5591315523125
 31
0.0
  0
ARC
  5
19C
330
1F
100
AcDbEntity
  8
0
 62
     1
100
AcDbCircle
 10
145.3240424840955
 20
158.5591315523124
 30
0.0
 40
3.0
100
AcDbArc
 50
190.0
 51
270.0
  0
ARC
  5
19D
330
1F
100
AcDbEntity
  8
0
 62
     1
100
AcDbCircle
 10
275.2363654686933
 20
158.5591315523125
 30
0.0
 40
3.0
100
AcDbArc
 50
270.0
 51
349.9999999999998
  0
ARC
  5
1A4
330
1F
100
AcDbEntity
  8
0
 62
     1
100
AcDbCircle
 10
178.8357595319499
 20
245.9591315523125
 30
0.0
 40
72.55555555555551
100
AcDbArc
 50
151.158453744978
 51
208.841546255022
  0
ARC
  5
1A9
330
1F
100
AcDbEntity
  8
0
 62
     1
100
AcDbCircle
 10
137.9593243438694
 20
294.0373212893953
 30
0.0
 40
26.17979273106553
100
AcDbArc
 50
121.5005550470975
 51
209.9704203567429
  0
ARC
  5
1AA
330
1F
100
AcDbEntity
  8
0
 62
     1
100
AcDbCircle
 10
137.9593243438694
 20
197.8809418152298
 30
0.0
 40
26.17979273106553
100
AcDbArc
 50
150.0295796432564
 51
234.8697548039736
  0
ARC
  5
1AB
330
1F
100
AcDbEntity
  8
0
 62
     1
100
AcDbCircle
 10
241.724648420839
 20
245.9591315523125
 30
0.0
 40
72.55555555555551
100
AcDbArc
 50
331.1584537449784
 51
28.84154625502168
  0
ARC
  5
1AC
330
1F
100
AcDbEntity
  8
0
 62
     1
100
AcDbCircle
 10
282.6010836089196
 20
294.0373212893953
 30
0.0
 40
26.17979273106553
100
AcDbArc
 50
330.0295796432566
 51
58.4994449529038
  0
ARC
  5
1AD
330
1F
100
AcDbEntity
  8
0
 62
     1
100
AcDbCircle
 10
282.6010836089196
 20
197.8809418152298
 30
0.0
 40
26.17979273106553
100
AcDbArc
 50
305.1302451960276
 51
29.97042035674394
  0
DIMENSION
  5
1AE
102
{ACAD_XDICTIONARY
360
1BB
102
}
102
{ACAD_REACTORS
330
1C5
102
}
330
1F
100
AcDbEntity
  8
0
 62
     1
100
AcDbDimension
  2
*D3
 10
162.410152094111
 20
316.3591315523125
 30
0.0
 11
157.1184854274443
 21
334.6091315523127
 31
0.0
 70
    32
 71
     5
 42
36.50000000000007
 73
     0
 74
     0
 75
     0
  3
ISO-25
100
AcDbAlignedDimension
 13
170.8207754462992
 23
352.8591315523126
 33
0.0
 14
170.8207754462991
 24
316.3591315523125
 34
0.0
 50
90.0
100
AcDbRotatedDimension
  0
ARC
  5
1EC
330
1F
100
AcDbEntity
  8
0
 62
     1
100
AcDbCircle
 10
125.7716867817172
 20
180.5591315523123
 30
0.0
 40
5.0
100
AcDbArc
 50
234.8697548039736
 51
270.0
  0
ARC
  5
1ED
330
1F
100
AcDbEntity
  8
0
 62
     1
100
AcDbCircle
 10
294.7887211710721
 20
180.5591315523125
 30
0.0
 40
5.0
100
AcDbArc
 50
269.9999999999994
 51
305.1302451960276
  0
LINE
  5
1EE
330
1F
100
AcDbEntity
  8
0
 62
     2
100
AcDbLine
 10
139.2802039763947
 20
175.5591315523123
 30
0.0
 11
281.2802039763944
 21
175.5591315523125
 31
0.0
  0
LINE
  5
1F2
330
1F
100
AcDbEntity
  8
0
 62
     1
100
AcDbLine
 10
122.9319662878101
 20
336.5064302663337
 30
0.0
 11
139.7802039763944
 21
352.8591315523126
 31
0.0
  0
ARC
  5
1F6
102
{ACAD_REACTORS
330
2B3
102
}
330
1F
100
AcDbEntity
  8
0
 62
     1
100
AcDbCircle
 10
121.2802039763944
 20
334.3591315523127
 30
0.0
 40
1.500000000000049
100
AcDbArc
 50
199.9987545841538
 51
0.0
  0
ARC
  5
1F8
330
1F
100
AcDbEntity
  8
0
 62
     1
100
AcDbCircle
 10
109.8163279747962
 20
343.8230075539108
 30
0.0
 40
6.036123998401812
100
AcDbArc
 50
20.41854199845834
 51
90.0
  0
LINE
  5
1F9
102
{ACAD_REACTORS
330
2CE
102
}
330
1F
100
AcDbEntity
  8
0
 62
     1
100
AcDbLine
 10
109.8163279747962
 20
349.8591315523126
 30
0.0
 11
103.7802039763944
 21
349.8591315523126
 31
0.0
  0
LINE
  5
204
330
1F
100
AcDbEntity
  8
0
 62
     1
100
AcDbLine
 10
115.4731970865813
 20
345.9288624340518
 30
0.0
 11
119.8706538940123
 21
333.8461319760392
 31
0.0
  0
LINE
  5
205
330
1F
100
AcDbEntity
  8
0
 62
     1
100
AcDbLine
 10
122.7802039763944
 20
336.1476399205195
 30
0.0
 11
122.7802039763945
 21
334.3591315523127
 31
0.0
  0
ARC
  5
206
330
1F
100
AcDbEntity
  8
0
 62
     1
100
AcDbCircle
 10
123.2802039763944
 20
336.1476399205195
 30
0.0
 40
0.5
100
AcDbArc
 50
134.1449026037333
 51
180.0000000000024
  0
LINE
  5
207
330
1F
100
AcDbEntity
  8
0
 62
     1
100
AcDbLine
 10
103.7802039763944
 20
349.8591315523125
 30
0.0
 11
103.7802039763944
 21
316.3591315523127
 31
0.0
  0
LINE
  5
208
330
1F
100
AcDbEntity
  8
0
 62
     1
100
AcDbLine
 10
316.7802039763945
 20
349.8591315523125
 30
0.0
 11
316.7802039763945
 21
316.3591315523127
 31
0.0
  0
LINE
  5
209
330
1F
100
AcDbEntity
  8
0
 62
     1
100
AcDbLine
 10
310.7440799779926
 20
349.8591315523126
 30
0.0
 11
316.7802039763945
 21
349.8591315523126
 31
0.0
  0
LINE
  5
20A
330
1F
100
AcDbEntity
  8
0
 62
     1
100
AcDbLine
 10
297.6284416649788
 20
336.5064302663337
 30
0.0
 11
280.7802039763944
 21
352.8591315523126
 31
0.0
  0
ARC
  5
20B
330
1F
100
AcDbEntity
  8
0
 62
     1
100
AcDbCircle
 10
297.2802039763944
 20
336.1476399205195
 30
0.0
 40
0.5
100
AcDbArc
 50
359.9999999999976
 51
45.85509739626642
  0
ARC
  5
20C
330
1F
100
AcDbEntity
  8
0
 62
     1
100
AcDbCircle
 10
299.2802039763944
 20
334.3591315523127
 30
0.0
 40
1.500000000000049
100
AcDbArc
 50
180.0
 51
340.0012454158463
  0
ARC
  5
20D
330
1F
100
AcDbEntity
  8
0
 62
     1
100
AcDbCircle
 10
310.7440799779926
 20
343.8230075539108
 30
0.0
 40
6.036123998401812
100
AcDbArc
 50
90.0
 51
159.5814580015419
  0
LINE
  5
20E
330
1F
100
AcDbEntity
  8
0
 62
     1
100
AcDbLine
 10
305.0872108662076
 20
345.9288624340518
 30
0.0
 11
300.6897540587766
 21
333.8461319760392
 31
0.0
  0
LINE
  5
20F
330
1F
100
AcDbEntity
  8
0
 62
     1
100
AcDbLine
 10
297.7802039763944
 20
336.1476399205195
 30
0.0
 11
297.7802039763943
 21
334.3591315523127
 31
0.0
  0
LINE
  5
210
330
1F
100
AcDbEntity
  8
0
 62
     1
100
AcDbLine
 10
103.7802039763944
 20
496.8591315523124
 30
0.0
 11
103.7802039763944
 21
529.8591315523124
 31
0.0
  0
LINE
  5
211
102
{ACAD_REACTORS
330
254
102
}
330
1F
100
AcDbEntity
  8
0
 62
     1
100
AcDbLine
 10
109.8163279747962
 20
496.8591315523124
 30
0.0
 11
103.7802039763944
 21
496.8591315523124
 31
0.0
  0
LINE
  5
212
330
1F
100
AcDbEntity
  8
0
 62
     1
100
AcDbLine
 10
122.9319662878101
 20
510.2118328382913
 30
0.0
 11
139.7802039763944
 21
493.8591315523124
 31
0.0
  0
ARC
  5
213
330
1F
100
AcDbEntity
  8
0
 62
     1
100
AcDbCircle
 10
123.2802039763944
 20
510.5706231841055
 30
0.0
 40
0.5
100
AcDbArc
 50
180.0
 51
225.8550973962666
  0
ARC
  5
214
102
{ACAD_REACTORS
330
239
102
}
330
1F
100
AcDbEntity
  8
0
 62
     1
100
AcDbCircle
 10
121.2802039763944
 20
512.3591315523124
 30
0.0
 40
1.500000000000049
100
AcDbArc
 50
0.0
 51
160.0012454158469
  0
ARC
  5
215
330
1F
100
AcDbEntity
  8
0
 62
     1
100
AcDbCircle
 10
109.8163279747962
 20
502.8952555507141
 30
0.0
 40
6.036123998401812
100
AcDbArc
 50
270.0
 51
339.5814580015427
  0
LINE
  5
216
330
1F
100
AcDbEntity
  8
0
 62
     1
100
AcDbLine
 10
115.4731970865813
 20
500.7894006705732
 30
0.0
 11
119.8706538940123
 21
512.8721311285858
 31
0.0
  0
LINE
  5
217
330
1F
100
AcDbEntity
  8
0
 62
     1
100
AcDbLine
 10
122.7802039763944
 20
510.5706231841055
 30
0.0
 11
122.7802039763945
 21
512.3591315523124
 31
0.0
  0
LINE
  5
218
330
1F
100
AcDbEntity
  8
0
 62
     1
100
AcDbLine
 10
316.7802039763945
 20
496.8591315523124
 30
0.0
 11
316.7802039763945
 21
529.8591315523124
 31
0.0
  0
LINE
  5
219
330
1F
100
AcDbEntity
  8
0
 62
     1
100
AcDbLine
 10
310.7440799779926
 20
496.8591315523124
 30
0.0
 11
316.7802039763945
 21
496.8591315523124
 31
0.0
  0
LINE
  5
21A
330
1F
100
AcDbEntity
  8
0
 62
     1
100
AcDbLine
 10
297.6284416649788
 20
510.2118328382913
 30
0.0
 11
280.7802039763944
 21
493.8591315523124
 31
0.0
  0
ARC
  5
21B
330
1F
100
AcDbEntity
  8
0
 62
     1
100
AcDbCircle
 10
297.2802039763944
 20
510.5706231841055
 30
0.0
 40
0.5
100
AcDbArc
 50
314.1449026037336
 51
0.0
  0
ARC
  5
21C
330
1F
100
AcDbEntity
  8
0
 62
     1
100
AcDbCircle
 10
299.2802039763944
 20
512.3591315523124
 30
0.0
 40
1.500000000000049
100
AcDbArc
 50
19.99875458415309
 51
180.0
  0
ARC
  5
21D
330
1F
100
AcDbEntity
  8
0
 62
     1
100
AcDbCircle
 10
310.7440799779926
 20
502.8952555507141
 30
0.0
 40
6.036123998401812
100
AcDbArc
 50
200.4185419984573
 51
270.0
  0
LINE
  5
21E
330
1F
100
AcDbEntity
  8
0
 62
     1
100
AcDbLine
 10
305.0872108662076
 20
500.7894006705732
 30
0.0
 11
300.6897540587766
 21
512.8721311285858
 31
0.0
  0
LINE
  5
21F
330
1F
100
AcDbEntity
  8
0
 62
     1
100
AcDbLine
 10
297.7802039763944
 20
510.5706231841055
 30
0.0
 11
297.7802039763943
 21
512.3591315523124
 31
0.0
  0
DIMENSION
  5
220
102
{ACAD_XDICTIONARY
360
22E
102
}
102
{ACAD_REACTORS
330
239
102
}
330
1F
100
AcDbEntity
  8
0
 62
     1
100
AcDbDimension
  2
*D5
 10
118.2302009343107
 20
529.8591315523124
 30
0.0
 11
112.9385342676439
 21
544.3174648856459
 31
0.0
 70
    32
 71
     5
 42
17.50000000000011
 73
     0
 74
     0
 75
     0
  3
ISO-25
100
AcDbAlignedDimension
 13
121.2802039763944
 23
512.3591315523124
 33
0.0
 14
121.2802039763944
 24
529.8591315523124
 34
0.0
 50
90.0
100
AcDbRotatedDimension
  0
DIMENSION
  5
23B
102
{ACAD_XDICTIONARY
360
249
102
}
102
{ACAD_REACTORS
330
254
102
}
330
1F
100
AcDbEntity
  8
0
 62
     1
100
AcDbDimension
  2
*D6
 10
87.02552218734991
 20
496.8591315523124
 30
0.0
 11
81.73385552068316
 21
482.400798218979
 31
0.0
 70
    32
 71
     5
 42
15.49999999999994
 73
     0
 74
     0
 75
     0
  3
ISO-25
100
AcDbAlignedDimension
 13
121.2802039763944
 23
512.3591315523124
 33
0.0
 14
103.7802039763944
 24
496.8591315523124
 34
0.0
 50
90.0
100
AcDbRotatedDimension
  0
DIMENSION
  5
273
102
{ACAD_XDICTIONARY
360
281
102
}
102
{ACAD_REACTORS
330
28C
102
}
330
1F
100
AcDbEntity
  8
0
 62
     1
100
AcDbDimension
  2
*D8
 10
139.7802039763944
 20
513.8427972949673
 30
0.0
 11
154.2385373097278
 21
519.1344639616342
 31
0.0
 70
    32
 71
     5
 42
18.5
 73
     0
 74
     0
 75
     0
  3
ISO-25
100
AcDbAlignedDimension
 13
121.2802039763944
 23
512.3591315523124
 33
0.0
 14
139.7802039763944
 24
512.3591315523124
 34
0.0
100
AcDbRotatedDimension
  0
LINE
  5
28D
330
1F
100
AcDbEntity
  8
0
 62
     2
100
AcDbLine
 10
280.7802039763944
 20
493.8591315523124
 30
0.0
 11
139.7802039763944
 21
493.8591315523124
 31
0.0
  0
LINE
  5
28E
330
1F
100
AcDbEntity
  8
0
 62
     2
100
AcDbLine
 10
139.7802039763944
 20
493.8591315523124
 30
0.0
 11
139.7802039763944
 21
352.8591315523126
 31
0.0
  0
LINE
  5
28F
330
1F
100
AcDbEntity
  8
0
 62
     2
100
AcDbLine
 10
139.7802039763944
 20
352.8591315523126
 30
0.0
 11
280.7802039763944
 21
352.8591315523125
 31
0.0
  0
LINE
  5
290
330
1F
100
AcDbEntity
  8
0
 62
     2
100
AcDbLine
 10
280.7802039763944
 20
352.8591315523125
 30
0.0
 11
280.7802039763944
 21
493.8591315523124
 31
0.0
  0
LINE
  5
29A
330
1F
100
AcDbEntity
  8
0
 62
     1
100
AcDbLine
 10
121.2802039763944
 20
476.3591315523123
 30
0.0
 11
121.2802039763944
 21
455.3591315523124
 31
0.0
  0
DIMENSION
  5
29C
102
{ACAD_XDICTIONARY
360
2A9
102
}
102
{ACAD_REACTORS
330
2B3
102
}
330
1F
100
AcDbEntity
  8
0
 62
     1
100
AcDbDimension
  2
*D9
 10
116.2808064549776
 20
316.3591315523127
 30
0.0
 11
111.6558064549776
 21
325.3591315523126
 31
0.0
 70
    32
 71
     5
 42
18.00000000000006
 73
     0
 74
     0
 75
     0
  3
ISO-25
100
AcDbAlignedDimension
 13
121.2802039763944
 23
334.3591315523127
 33
0.0
 14
121.2802039763944
 24
316.3591315523127
 34
0.0
 50
90.0
100
AcDbRotatedDimension
  0
DIMENSION
  5
2B5
102
{ACAD_XDICTIONARY
360
2C3
102
}
102
{ACAD_REACTORS
330
2CE
102
}
330
1F
100
AcDbEntity
  8
0
 62
     1
100
AcDbDimension
  2
*D10
 10
59.46016465120054
 20
334.3591315523127
 30
0.0
 11
54.16849798453384
 21
319.9007982189793
 31
0.0
 70
    32
 71
     5
 42
15.5
 73
     0
 74
     0
 75
     0
  3
ISO-25
100
AcDbAlignedDimension
 13
107.2739803846448
 23
349.8591315523126
 33
0.0
 14
121.2802039763944
 24
334.3591315523127
 34
0.0
 50
90.0
100
AcDbRotatedDimension
  0
LINE
  5
2D3
330
1F
100
AcDbEntity
  8
0
 62
     1
100
AcDbLine
 10
121.2802039763944
 20
370.3591315523125
 30
0.0
 11
121.2802039763944
 21
391.3591315523125
 31
0.0
  0
LINE
  5
2D6
330
1F
100
AcDbEntity
  8
0
 62
     1
100
AcDbLine
 10
299.2802039763944
 20
476.3591315523123
 30
0.0
 11
299.2802039763945
 21
455.3591315523124
 31
0.0
  0
LINE
  5
2D7
330
1F
100
AcDbEntity
  8
0
 62
     1
100
AcDbLine
 10
299.2802039763944
 20
370.3591315523125
 30
0.0
 11
299.2802039763945
 21
391.3591315523125
 31
0.0
  0
LINE
  5
2DD
330
1F
100
AcDbEntity
  8
0
 62
     1
100
AcDbLine
 10
128.7802039763951
 20
459.2591315523113
 30
0.0
 11
128.7802039763951
 21
387.4591315523135
 31
0.0
  0
LINE
  5
2DE
330
1F
100
AcDbEntity
  8
0
 62
     1
100
AcDbLine
 10
291.7802039763939
 20
459.2591315523113
 30
0.0
 11
291.7802039763939
 21
387.4591315523135
 31
0.0
  0
LINE
  5
2E9
330
1F
100
AcDbEntity
  8
0
 62
     2
100
AcDbLine
 10
601.7246751905823
 20
493.8591315523124
 30
0.0
 11
460.7246751905822
 21
493.8591315523124
 31
0.0
  0
LINE
  5
2EA
330
1F
100
AcDbEntity
  8
0
 62
     2
100
AcDbLine
 10
460.7246751905822
 20
493.8591315523124
 30
0.0
 11
460.7246751905822
 21
352.8591315523126
 31
0.0
  0
LINE
  5
2EC
330
1F
100
AcDbEntity
  8
0
 62
     2
100
AcDbLine
 10
460.7246751905822
 20
352.8591315523126
 30
0.0
 11
601.7246751905823
 21
352.8591315523125
 31
0.0
  0
LINE
  5
2EE
330
1F
100
AcDbEntity
  8
0
 62
     1
100
AcDbLine
 10
637.7246751905822
 20
529.8591315523124
 30
0.0
 11
460.7246751905822
 21
529.8591315523124
 31
0.0
  0
LINE
  5
2EF
330
1F
100
AcDbEntity
  8
0
 62
     1
100
AcDbLine
 10
424.7246751905822
 20
493.8591315523124
 30
0.0
 11
424.7246751905822
 21
352.8591315523126
 31
0.0
  0
LINE
  5
2F3
330
1F
100
AcDbEntity
  8
0
 62
     1
100
AcDbLine
 10
466.2685136982831
 20
155.5591315523124
 30
0.0
 11
596.1808366828811
 21
155.5591315523124
 31
0.0
  0
ARC
  5
2F4
330
1F
100
AcDbEntity
  8
0
 62
     1
100
AcDbCircle
 10
466.2685136982831
 20
158.5591315523124
 30
0.0
 40
3.0
100
AcDbArc
 50
190.0
 51
270.0
  0
LINE
  5
2F7
330
1F
100
AcDbEntity
  8
0
 62
     2
100
AcDbLine
 10
460.7246751905822
 20
352.8591315523126
 30
0.0
 11
460.7246751905822
 21
316.3591315523127
 31
0.0
  0
LINE
  5
2F8
330
1F
100
AcDbEntity
  8
0
 62
     1
100
AcDbLine
 10
460.7246751905822
 20
352.8591315523126
 30
0.0
 11
424.7246751905822
 21
352.8591315523126
 31
0.0
  0
LINE
  5
2FC
330
1F
100
AcDbEntity
  8
0
 62
     2
100
AcDbLine
 10
460.7246751905822
 20
493.8591315523124
 30
0.0
 11
460.7246751905822
 21
529.8591315523124
 31
0.0
  0
LINE
  5
2FD
330
1F
100
AcDbEntity
  8
0
 62
     1
100
AcDbLine
 10
460.7246751905822
 20
493.8591315523124
 30
0.0
 11
424.7246751905822
 21
493.8591315523124
 31
0.0
  0
LINE
  5
301
330
1F
100
AcDbEntity
  8
0
 62
     2
100
AcDbLine
 10
460.2246751905822
 20
316.3591315523127
 30
0.0
 11
460.2246751905822
 21
175.5591315523123
 31
0.0
  0
LINE
  5
302
330
1F
100
AcDbEntity
  8
0
 62
     2
100
AcDbLine
 10
601.7246751905823
 20
316.3591315523125
 30
0.0
 11
460.7246751905822
 21
316.3591315523127
 31
0.0
  0
LINE
  5
303
330
1F
100
AcDbEntity
  8
0
 62
     1
100
AcDbLine
 10
460.2246751905822
 20
175.5591315523123
 30
0.0
 11
463.3140904392465
 21
158.0381870193116
 31
0.0
  0
LINE
  5
306
330
1F
100
AcDbEntity
  8
0
 62
     1
100
AcDbLine
 10
460.2246751905822
 20
175.5591315523123
 30
0.0
 11
446.716157995905
 21
175.5591315523123
 31
0.0
  0
ARC
  5
308
330
1F
100
AcDbEntity
  8
0
 62
     1
100
AcDbCircle
 10
499.7802307461377
 20
245.9591315523125
 30
0.0
 40
72.55555555555551
100
AcDbArc
 50
151.1584537449783
 51
208.8415462550217
  0
ARC
  5
309
330
1F
100
AcDbEntity
  8
0
 62
     1
100
AcDbCircle
 10
458.9037955580572
 20
294.0373212893953
 30
0.0
 40
26.17979273106553
100
AcDbArc
 50
121.5005550470962
 51
209.9704203567434
  0
ARC
  5
30A
330
1F
100
AcDbEntity
  8
0
 62
     1
100
AcDbCircle
 10
458.9037955580572
 20
197.8809418152298
 30
0.0
 40
26.17979273106553
100
AcDbArc
 50
150.0295796432561
 51
234.8697548039726
  0
ARC
  5
30B
330
1F
100
AcDbEntity
  8
0
 62
     1
100
AcDbCircle
 10
446.716157995905
 20
180.5591315523123
 30
0.0
 40
5.0
100
AcDbArc
 50
234.8697548039726
 51
270.0
  0
LINE
  5
313
330
1F
100
AcDbEntity
  8
0
 62
     2
100
AcDbLine
 10
460.2246751905822
 20
175.5591315523123
 30
0.0
 11
602.2246751905822
 21
175.5591315523125
 31
0.0
  0
LINE
  5
344
330
1F
100
AcDbEntity
  8
0
 62
     1
100
AcDbLine
 10
450.7246751905829
 20
459.2591315523113
 30
0.0
 11
450.7246751905829
 21
387.4591315523135
 31
0.0
  0
LINE
  5
3AE
330
1F
100
AcDbEntity
  8
0
 62
     1
100
AcDbLine
 10
460.7246751905822
 20
352.8591315523126
 30
0.0
 11
445.7246751905822
 21
340.6091315523127
 31
0.0
  0
LINE
  5
3AF
330
1F
100
AcDbEntity
  8
0
 62
     1
100
AcDbLine
 10
460.7246751905822
 20
316.3591315523127
 30
0.0
 11
445.7246751905822
 21
328.6091315523127
 31
0.0
  0
ARC
  5
3BB
330
1F
100
AcDbEntity
  8
0
 62
     1
100
AcDbCircle
 10
439.7246751905822
 20
340.6091315523127
 30
0.0
 40
6.0
100
AcDbArc
 50
0.0
 51
180.0
  0
ARC
  5
3BC
330
1F
100
AcDbEntity
  8
0
 62
     1
100
AcDbCircle
 10
439.7246751905822
 20
328.6091315523127
 30
0.0
 40
6.0
100
AcDbArc
 50
180.0
 51
0.0
  0
LINE
  5
3BD
330
1F
100
AcDbEntity
  8
0
 62
     1
100
AcDbLine
 10
433.7246751905822
 20
340.6091315523127
 30
0.0
 11
433.7246751905822
 21
328.6091315523127
 31
0.0
  0
LINE
  5
3BE
330
1F
100
AcDbEntity
  8
0
 62
     1
100
AcDbLine
 10
445.2246751905827
 20
316.359131552313
 30
0.0
 11
460.7246751905822
 21
316.3591315523127
 31
0.0
  0
LINE
  5
3C6
330
1F
100
AcDbEntity
  8
0
 62
     1
100
AcDbLine
 10
460.7246751905822
 20
493.8591315523124
 30
0.0
 11
445.7246751905822
 21
506.1091315523124
 31
0.0
  0
LINE
  5
3C7
330
1F
100
AcDbEntity
  8
0
 62
     1
100
AcDbLine
 10
460.7246751905822
 20
529.8591315523124
 30
0.0
 11
445.7246751905822
 21
518.1091315523124
 31
0.0
  0
ARC
  5
3C8
330
1F
100
AcDbEntity
  8
0
 62
     1
100
AcDbCircle
 10
439.7246751905822
 20
506.1091315523124
 30
0.0
 40
6.0
100
AcDbArc
 50
180.0
 51
0.0
  0
ARC
  5
3C9
330
1F
100
AcDbEntity
  8
0
 62
     1
100
AcDbCircle
 10
439.7246751905822
 20
518.1091315523124
 30
0.0
 40
6.0
100
AcDbArc
 50
0.0
 51
180.0
  0
LINE
  5
3CA
330
1F
100
AcDbEntity
  8
0
 62
     1
100
AcDbLine
 10
433.7246751905822
 20
506.1091315523124
 30
0.0
 11
433.7246751905822
 21
518.1091315523124
 31
0.0
  0
LINE
  5
3D8
330
1F
100
AcDbEntity
  8
0
 62
     1
100
AcDbLine
 10
437.7246751905822
 20
478.3591315523124
 30
0.0
 11
437.7246751905822
 21
467.3591315523123
 31
0.0
  0
LINE
  5
3D9
330
1F
100
AcDbEntity
  8
0
 62
     1
100
AcDbLine
 10
447.7246751905822
 20
478.3591315523124
 30
0.0
 11
447.7246751905822
 21
467.3591315523122
 31
0.0
  0
LINE
  5
3DB
330
1F
100
AcDbEntity
  8
0
 62
     1
100
AcDbLine
 10
435.7246751905822
 20
478.3591315523124
 30
0.0
 11
435.7246751905822
 21
467.3591315523123
 31
0.0
  0
LINE
  5
3DC
330
1F
100
AcDbEntity
  8
0
 62
     1
100
AcDbLine
 10
449.7246751905822
 20
478.3591315523124
 30
0.0
 11
449.7246751905822
 21
467.3591315523122
 31
0.0
  0
ARC
  5
3E2
330
1F
100
AcDbEntity
  8
0
 62
     1
100
AcDbCircle
 10
436.7246751905822
 20
478.3591315523124
 30
0.0
 40
0.9999999999999912
100
AcDbArc
 50
0.0
 51
180.0
  0
ARC
  5
3E3
330
1F
100
AcDbEntity
  8
0
 62
     1
100
AcDbCircle
 10
436.7246751905822
 20
467.3591315523123
 30
0.0
 40
0.9999999999999912
100
AcDbArc
 50
180.0
 51
0.0
  0
ARC
  5
3E4
330
1F
100
AcDbEntity
  8
0
 62
     1
100
AcDbCircle
 10
448.7246751905821
 20
478.3591315523124
 30
0.0
 40
0.9999999999999912
100
AcDbArc
 50
0.0
 51
180.0
  0
ARC
  5
3E5
330
1F
100
AcDbEntity
  8
0
 62
     1
100
AcDbCircle
 10
448.7246751905821
 20
467.3591315523122
 30
0.0
 40
0.9999999999999912
100
AcDbArc
 50
180.0
 51
0.0
  0
LINE
  5
3E6
330
1F
100
AcDbEntity
  8
0
 62
     1
100
AcDbLine
 10
447.7246751905822
 20
368.3591315523127
 30
0.0
 11
447.7246751905822
 21
379.3591315523128
 31
0.0
  0
LINE
  5
3E7
330
1F
100
AcDbEntity
  8
0
 62
     1
100
AcDbLine
 10
449.7246751905822
 20
368.3591315523127
 30
0.0
 11
449.7246751905822
 21
379.3591315523128
 31
0.0
  0
LINE
  5
3E8
330
1F
100
AcDbEntity
  8
0
 62
     1
100
AcDbLine
 10
437.7246751905822
 20
368.3591315523127
 30
0.0
 11
437.7246751905822
 21
379.3591315523128
 31
0.0
  0
LINE
  5
3E9
330
1F
100
AcDbEntity
  8
0
 62
     1
100
AcDbLine
 10
435.7246751905822
 20
368.3591315523127
 30
0.0
 11
435.7246751905822
 21
379.3591315523128
 31
0.0
  0
ARC
  5
3EA
330
1F
100
AcDbEntity
  8
0
 62
     1
100
AcDbCircle
 10
436.7246751905822
 20
368.3591315523127
 30
0.0
 40
0.9999999999999912
100
AcDbArc
 50
180.0
 51
0.0
  0
ARC
  5
3EB
330
1F
100
AcDbEntity
  8
0
 62
     1
100
AcDbCircle
 10
436.7246751905822
 20
379.3591315523128
 30
0.0
 40
0.9999999999999912
100
AcDbArc
 50
0.0
 51
180.0
  0
ARC
  5
3EC
330
1F
100
AcDbEntity
  8
0
 62
     1
100
AcDbCircle
 10
448.7246751905821
 20
368.3591315523127
 30
0.0
 40
0.9999999999999912
100
AcDbArc
 50
180.0
 51
0.0
  0
ARC
  5
3ED
330
1F
100
AcDbEntity
  8
0
 62
     1
100
AcDbCircle
 10
448.7246751905821
 20
379.3591315523128
 30
0.0
 40
0.9999999999999912
100
AcDbArc
 50
0.0
 51
180.0
  0
LINE
  5
3EE
330
1F
100
AcDbEntity
  8
0
 62
     2
100
AcDbLine
 10
601.7246751905823
 20
493.8591315523124
 30
0.0
 11
601.7246751905823
 21
352.8591315523126
 31
0.0
  0
LINE
  5
3EF
330
1F
100
AcDbEntity
  8
0
 62
     1
100
AcDbLine
 10
637.7246751905822
 20
493.8591315523124
 30
0.0
 11
637.7246751905822
 21
352.8591315523126
 31
0.0
  0
ARC
  5
3F0
330
1F
100
AcDbEntity
  8
0
 62
     1
100
AcDbCircle
 10
596.1808366828812
 20
158.5591315523124
 30
0.0
 40
3.0
100
AcDbArc
 50
270.0
 51
350.0000000000011
  0
LINE
  5
3F1
330
1F
100
AcDbEntity
  8
0
 62
     2
100
AcDbLine
 10
601.7246751905823
 20
352.8591315523126
 30
0.0
 11
601.7246751905823
 21
316.3591315523127
 31
0.0
  0
LINE
  5
3F2
330
1F
100
AcDbEntity
  8
0
 62
     1
100
AcDbLine
 10
601.7246751905823
 20
352.8591315523126
 30
0.0
 11
637.7246751905822
 21
352.8591315523126
 31
0.0
  0
LINE
  5
3F3
330
1F
100
AcDbEntity
  8
0
 62
     2
100
AcDbLine
 10
601.7246751905823
 20
493.8591315523124
 30
0.0
 11
601.7246751905823
 21
529.8591315523124
 31
0.0
  0
LINE
  5
3F4
330
1F
100
AcDbEntity
  8
0
 62
     1
100
AcDbLine
 10
601.7246751905823
 20
493.8591315523124
 30
0.0
 11
637.7246751905822
 21
493.8591315523124
 31
0.0
  0
LINE
  5
3F5
330
1F
100
AcDbEntity
  8
0
 62
     2
100
AcDbLine
 10
602.2246751905822
 20
316.3591315523127
 30
0.0
 11
602.2246751905822
 21
175.5591315523123
 31
0.0
  0
LINE
  5
3F6
330
1F
100
AcDbEntity
  8
0
 62
     1
100
AcDbLine
 10
602.2246751905822
 20
175.5591315523123
 30
0.0
 11
599.1352599419179
 21
158.0381870193116
 31
0.0
  0
LINE
  5
3F7
330
1F
100
AcDbEntity
  8
0
 62
     1
100
AcDbLine
 10
602.2246751905819
 20
175.5591315523123
 30
0.0
 11
615.7331923852596
 21
175.5591315523123
 31
0.0
  0
ARC
  5
3F8
330
1F
100
AcDbEntity
  8
0
 62
     1
100
AcDbCircle
 10
562.6691196350267
 20
245.9591315523125
 30
0.0
 40
72.55555555555551
100
AcDbArc
 50
331.158453744977
 51
28.84154625502299
  0
ARC
  5
3F9
330
1F
100
AcDbEntity
  8
0
 62
     1
100
AcDbCircle
 10
603.5455548231071
 20
294.0373212893953
 30
0.0
 40
26.17979273106553
100
AcDbArc
 50
330.0295796432563
 51
58.49944495290136
  0
ARC
  5
3FA
330
1F
100
AcDbEntity
  8
0
 62
     1
100
AcDbCircle
 10
603.5455548231071
 20
197.8809418152298
 30
0.0
 40
26.17979273106553
100
AcDbArc
 50
305.1302451960224
 51
29.97042035674415
  0
ARC
  5
3FB
330
1F
100
AcDbEntity
  8
0
 62
     1
100
AcDbCircle
 10
615.7331923852596
 20
180.5591315523123
 30
0.0
 40
5.0
100
AcDbArc
 50
270.0
 51
305.1302451960224
  0
LINE
  5
3FD
330
1F
100
AcDbEntity
  8
0
 62
     1
100
AcDbLine
 10
601.7246751905823
 20
352.8591315523126
 30
0.0
 11
616.7246751905822
 21
340.6091315523127
 31
0.0
  0
LINE
  5
3FE
330
1F
100
AcDbEntity
  8
0
 62
     1
100
AcDbLine
 10
601.7246751905823
 20
316.3591315523127
 30
0.0
 11
616.7246751905822
 21
328.6091315523127
 31
0.0
  0
ARC
  5
3FF
330
1F
100
AcDbEntity
  8
0
 62
     1
100
AcDbCircle
 10
622.7246751905822
 20
340.6091315523127
 30
0.0
 40
6.0
100
AcDbArc
 50
0.000000000000007
 51
180.0
  0
ARC
  5
400
330
1F
100
AcDbEntity
  8
0
 62
     1
100
AcDbCircle
 10
622.7246751905822
 20
328.6091315523127
 30
0.0
 40
6.0
100
AcDbArc
 50
180.0
 51
0.000000000000007
  0
LINE
  5
401
330
1F
100
AcDbEntity
  8
0
 62
     1
100
AcDbLine
 10
628.7246751905822
 20
340.6091315523127
 30
0.0
 11
628.7246751905822
 21
328.6091315523127
 31
0.0
  0
LINE
  5
402
330
1F
100
AcDbEntity
  8
0
 62
     1
100
AcDbLine
 10
617.2246751905817
 20
316.359131552313
 30
0.0
 11
601.7246751905823
 21
316.3591315523127
 31
0.0
  0
LINE
  5
403
330
1F
100
AcDbEntity
  8
0
 62
     1
100
AcDbLine
 10
601.7246751905823
 20
493.8591315523124
 30
0.0
 11
616.7246751905822
 21
506.1091315523124
 31
0.0
  0
LINE
  5
404
330
1F
100
AcDbEntity
  8
0
 62
     1
100
AcDbLine
 10
601.7246751905823
 20
529.8591315523124
 30
0.0
 11
616.7246751905822
 21
518.1091315523124
 31
0.0
  0
ARC
  5
405
330
1F
100
AcDbEntity
  8
0
 62
     1
100
AcDbCircle
 10
622.7246751905822
 20
506.1091315523124
 30
0.0
 40
6.0
100
AcDbArc
 50
180.0
 51
0.000000000000007
  0
ARC
  5
406
330
1F
100
AcDbEntity
  8
0
 62
     1
100
AcDbCircle
 10
622.7246751905822
 20
518.1091315523124
 30
0.0
 40
6.0
100
AcDbArc
 50
0.000000000000007
 51
180.0
  0
LINE
  5
407
330
1F
100
AcDbEntity
  8
0
 62
     1
100
AcDbLine
 10
628.7246751905822
 20
506.1091315523124
 30
0.0
 11
628.7246751905822
 21
518.1091315523124
 31
0.0
  0
LINE
  5
408
330
1F
100
AcDbEntity
  8
0
 62
     1
100
AcDbLine
 10
614.7246751905822
 20
478.3591315523124
 30
0.0
 11
614.7246751905822
 21
467.3591315523122
 31
0.0
  0
LINE
  5
409
330
1F
100
AcDbEntity
  8
0
 62
     1
100
AcDbLine
 10
612.7246751905822
 20
478.3591315523124
 30
0.0
 11
612.7246751905822
 21
467.3591315523122
 31
0.0
  0
LINE
  5
40A
330
1F
100
AcDbEntity
  8
0
 62
     1
100
AcDbLine
 10
624.7246751905822
 20
478.3591315523124
 30
0.0
 11
624.7246751905822
 21
467.3591315523123
 31
0.0
  0
LINE
  5
40B
330
1F
100
AcDbEntity
  8
0
 62
     1
100
AcDbLine
 10
626.7246751905823
 20
478.3591315523124
 30
0.0
 11
626.7246751905823
 21
467.3591315523123
 31
0.0
  0
ARC
  5
40C
330
1F
100
AcDbEntity
  8
0
 62
     1
100
AcDbCircle
 10
625.7246751905823
 20
478.3591315523124
 30
0.0
 40
0.9999999999999912
100
AcDbArc
 50
0.0000000000000064
 51
180.0
  0
ARC
  5
40D
330
1F
100
AcDbEntity
  8
0
 62
     1
100
AcDbCircle
 10
625.7246751905823
 20
467.3591315523123
 30
0.0
 40
0.9999999999999912
100
AcDbArc
 50
180.0
 51
0.0000000000000064
  0
ARC
  5
40E
330
1F
100
AcDbEntity
  8
0
 62
     1
100
AcDbCircle
 10
613.7246751905823
 20
478.3591315523124
 30
0.0
 40
0.9999999999999912
100
AcDbArc
 50
0.0000000000000064
 51
180.0
  0
ARC
  5
40F
330
1F
100
AcDbEntity
  8
0
 62
     1
100
AcDbCircle
 10
613.7246751905823
 20
467.3591315523122
 30
0.0
 40
0.9999999999999912
100
AcDbArc
 50
180.0
 51
0.0000000000000064
  0
LINE
  5
410
330
1F
100
AcDbEntity
  8
0
 62
     1
100
AcDbLine
 10
614.7246751905822
 20
368.3591315523127
 30
0.0
 11
614.7246751905822
 21
379.3591315523128
 31
0.0
  0
LINE
  5
411
330
1F
100
AcDbEntity
  8
0
 62
     1
100
AcDbLine
 10
612.7246751905822
 20
368.3591315523127
 30
0.0
 11
612.7246751905822
 21
379.3591315523128
 31
0.0
  0
LINE
  5
412
330
1F
100
AcDbEntity
  8
0
 62
     1
100
AcDbLine
 10
624.7246751905822
 20
368.3591315523127
 30
0.0
 11
624.7246751905822
 21
379.3591315523128
 31
0.0
  0
LINE
  5
413
330
1F
100
AcDbEntity
  8
0
 62
     1
100
AcDbLine
 10
626.7246751905823
 20
368.3591315523127
 30
0.0
 11
626.7246751905823
 21
379.3591315523128
 31
0.0
  0
ARC
  5
414
330
1F
100
AcDbEntity
  8
0
 62
     1
100
AcDbCircle
 10
625.7246751905823
 20
368.3591315523127
 30
0.0
 40
0.9999999999999912
100
AcDbArc
 50
180.0
 51
0.0000000000000064
  0
ARC
  5
415
330
1F
100
AcDbEntity
  8
0
 62
     1
100
AcDbCircle
 10
625.7246751905823
 20
379.3591315523128
 30
0.0
 40
0.9999999999999912
100
AcDbArc
 50
0.0000000000000064
 51
180.0
  0
ARC
  5
416
330
1F
100
AcDbEntity
  8
0
 62
     1
100
AcDbCircle
 10
613.7246751905823
 20
368.3591315523127
 30
0.0
 40
0.9999999999999912
100
AcDbArc
 50
180.0
 51
0.0000000000000064
  0
ARC
  5
417
330
1F
100
AcDbEntity
  8
0
 62
     1
100
AcDbCircle
 10
613.7246751905823
 20
379.3591315523128
 30
0.0
 40
0.9999999999999912
100
AcDbArc
 50
0.0000000000000064
 51
180.0
  0
LINE
  5
41A
330
1F
100
AcDbEntity
  8
0
 62
     1
100
AcDbLine
 10
611.7246751905816
 20
459.2591315523113
 30
0.0
 11
611.7246751905816
 21
387.4591315523135
 31
0.0
  0
ENDSEC
  0
SECTION
  2
OBJECTS
  0
DICTIONARY
  5
C
330
0
100
AcDbDictionary
281
     1
  3
ACAD_COLOR
350
6B
  3
ACAD_GROUP
350
D
  3
ACAD_LAYOUT
350
1A
  3
ACAD_MATERIAL
350
6A
  3
ACAD_MLINESTYLE
350
17
  3
ACAD_PLOTSETTINGS
350
19
  3
ACAD_PLOTSTYLENAME
350
E
  3
ACAD_TABLESTYLE
350
7E
  3
ACAD_VISUALSTYLE
350
F0
  3
AcDbVariableDictionary
350
5E
  0
DICTIONARY
  5
12A
330
1F
100
AcDbDictionary
280
     1
281
     1
  3
ACAD_SORTENTS
360
12B
  0
DICTIONARY
  5
1BB
330
1AE
100
AcDbDictionary
280
     1
281
     1
  3
ACAD_DIMASSOC
360
1C5
  0
DICTIONARY
  5
22E
330
220
100
AcDbDictionary
280
     1
281
     1
  3
ACAD_DIMASSOC
360
239
  0
DICTIONARY
  5
249
330
23B
100
AcDbDictionary
280
     1
281
     1
  3
ACAD_DIMASSOC
360
254
  0
DICTIONARY
  5
281
330
273
100
AcDbDictionary
280
     1
281
     1
  3
ACAD_DIMASSOC
360
28C
  0
DICTIONARY
  5
2A9
330
29C
100
AcDbDictionary
280
     1
281
     1
  3
ACAD_DIMASSOC
360
2B3
  0
DICTIONARY
  5
2C3
330
2B5
100
AcDbDictionary
280
     1
281
     1
  3
ACAD_DIMASSOC
360
2CE
  0
DICTIONARY
  5
6B
102
{ACAD_REACTORS
330
C
102
}
330
C
100
AcDbDictionary
281
     1
  0
DICTIONARY
  5
D
102
{ACAD_REACTORS
330
C
102
}
330
C
100
AcDbDictionary
281
     1
  0
DICTIONARY
  5
1A
102
{ACAD_REACTORS
330
C
102
}
330
C
100
AcDbDictionary
281
     1
  3
Model
350
22
  3
布局1
350
D3
  3
布局2
350
D7
  0
DICTIONARY
  5
6A
102
{ACAD_REACTORS
330
C
102
}
330
C
100
AcDbDictionary
281
     1
  3
ByBlock
350
EE
  3
ByLayer
350
ED
  3
Global
350
EF
  0
DICTIONARY
  5
17
102
{ACAD_REACTORS
330
C
102
}
330
C
100
AcDbDictionary
281
     1
  3
Standard
350
18
  0
DICTIONARY
  5
19
102
{ACAD_REACTORS
330
C
102
}
330
C
100
AcDbDictionary
281
     1
  0
ACDBDICTIONARYWDFLT
  5
E
102
{ACAD_REACTORS
330
C
102
}
330
C
100
AcDbDictionary
281
     1
  3
Normal
350
F
100
AcDbDictionaryWithDefault
340
F
  0
DICTIONARY
  5
7E
102
{ACAD_REACTORS
330
C
102
}
330
C
100
AcDbDictionary
281
     1
  3
Standard
350
7F
  0
DICTIONARY
  5
F0
102
{ACAD_REACTORS
330
C
102
}
330
C
100
AcDbDictionary
281
     1
  3
2dWireframe
350
F6
  3
3D Hidden
350
F8
  3
3dWireframe
350
F7
  3
Basic
350
F5
  3
Brighten
350
FC
  3
ColorChange
350
100
  3
Conceptual
350
F9
  3
Dim
350
FB
  3
Facepattern
350
FF
  3
Flat
350
F1
  3
FlatWithEdges
350
F2
  3
Gouraud
350
F3
  3
GouraudWithEdges
350
F4
  3
Linepattern
350
FE
  3
Realistic
350
FA
  3
Thicken
350
FD
  0
DICTIONARY
  5
5E
102
{ACAD_REACTORS
330
C
102
}
330
C
100
AcDbDictionary
281
     1
  3
CTABLESTYLE
350
84
  3
DIMASSOC
350
5F
  3
HIDETEXT
350
63
  0
SORTENTSTABLE
  5
12B
102
{ACAD_REACTORS
330
12A
102
}
330
12A
100
AcDbSortentsTable
330
1F
331
2F8
  5
2FC
331
20B
  5
219
331
19D
  5
1FA
331
137
  5
19E
331
28E
  5
12D
331
21A
  5
28F
331
3DB
  5
3DC
331
20C
  5
21A
331
21B
  5
290
331
28F
  5
133
331
3DC
  5
3DA
331
3AE
  5
3BB
331
301
  5
306
331
20D
  5
21B
331
139
  5
1F4
331
3C6
  5
3C8
331
21C
  5
29A
331
1F6
  5
212
331
3AF
  5
3BC
331
2B5
  5
2D3
331
302
  5
307
331
20E
  5
21C
331
2F3
  5
2F3
331
21D
  5
29B
331
1A9
  5
206
331
3C7
  5
3C9
331
2FC
  5
300
331
303
  5
308
331
2DD
  5
2DD
331
20F
  5
21D
331
3C8
  5
3CA
331
2F4
  5
2F4
331
21E
  5
29C
331
1AA
  5
207
331
2FD
  5
301
331
2DE
  5
2DE
331
210
  5
21E
331
290
  5
134
331
313
  5
345
331
21F
  5
2B4
331
1AB
  5
209
331
3C9
  5
3D6
331
3BB
  5
3BD
331
175
  5
1F5
331
211
  5
21F
331
23B
  5
2CF
331
3CA
  5
3D7
331
29A
  5
132
331
1AC
  5
20A
331
3BC
  5
3BE
331
306
  5
30B
331
212
  5
220
331
1A4
  5
205
331
1EC
  5
208
331
176
  5
1F6
331
2F7
  5
2F7
331
1AD
  5
20B
331
130
  5
1F0
331
3BD
  5
3BF
331
2E9
  5
2E9
331
177
  5
19B
331
1ED
  5
20C
331
213
  5
23A
331
1AE
  5
20D
331
204
  5
214
331
196
  5
19C
331
1F8
  5
213
331
29C
  5
2D2
331
131
  5
1F1
331
3BE
  5
3C0
331
308
  5
30D
331
2EA
  5
2EA
331
12C
  5
19F
331
214
  5
23B
331
1EE
  5
20E
331
178
  5
1F7
331
2D3
  5
2D4
331
205
  5
215
331
1F9
  5
1EE
331
198
  5
1F8
331
132
  5
1F2
331
215
  5
255
331
309
  5
30E
331
12D
  5
1A0
331
220
  5
2B5
331
206
  5
211
331
199
  5
1F9
331
133
  5
1F3
331
30A
  5
30F
331
2EC
  5
2EC
331
12E
  5
1A4
331
216
  5
272
331
207
  5
137
331
208
  5
216
331
19A
  5
1FC
331
134
  5
135
331
344
  5
3B9
331
217
  5
273
331
30B
  5
313
331
12F
  5
1EF
331
2D6
  5
2D6
331
3D8
  5
3DB
331
209
  5
217
331
19B
  5
204
331
135
  5
136
331
2EE
  5
2EE
331
218
  5
28D
331
1F2
  5
210
331
3D9
  5
3D9
331
2D7
  5
2D7
331
20A
  5
218
331
19C
  5
19D
331
136
  5
177
331
2EF
  5
2EF
331
273
  5
2D0
331
219
  5
28E
331
28D
  5
12C
  0
DIMASSOC
  5
1C5
102
{ACAD_REACTORS
330
1BB
102
}
330
1BB
100
AcDbDimAssoc
330
1AE
 90
        2
 70
     0
 71
     0
  1
AcDbOsnapPointRef
 72
     8
331
178
 73
     2
 91
        0
 40
0.7798541030503209
 10
0.0
 20
0.0
 30
0.0
 75
     1
  1
AcDbOsnapPointRef
 72
    10
331
128
 73
     2
 91
        3
 40
0.2201458969496792
 10
0.0
 20
0.0
 30
0.0
 75
     0
  0
DIMASSOC
  5
239
102
{ACAD_REACTORS
330
22E
102
}
330
22E
100
AcDbDimAssoc
330
220
 90
        3
 70
     0
 71
     0
  1
AcDbOsnapPointRef
 72
     3
331
214
 73
     2
 91
        0
 40
0.0
 10
0.0
 20
0.0
 30
0.0
 75
     0
  1
AcDbOsnapPointRef
 72
     8
331
134
 73
     2
 91
        0
 40
0.9178403755868544
 10
0.0
 20
0.0
 30
0.0
 75
     1
  1
AcDbOsnapPointRef
 72
     3
331
214
 73
     2
 91
        0
 40
0.0
 10
0.0
 20
0.0
 30
0.0
 75
     0
  0
DIMASSOC
  5
254
102
{ACAD_REACTORS
330
249
102
}
330
249
100
AcDbDimAssoc
330
23B
 90
        2
 70
     0
 71
     0
  1
AcDbOsnapPointRef
 72
     1
331
211
 73
     2
 91
        0
 40
1.0
 10
0.0
 20
0.0
 30
2.000000000000000E+50
 75
     0
  0
DIMASSOC
  5
28C
102
{ACAD_REACTORS
330
281
102
}
330
281
100
AcDbDimAssoc
330
273
 90
        2
 70
     0
 71
     0
  1
AcDbOsnapPointRef
 72
     8
331
131
 73
     2
 91
        0
 40
0.5138888888888859
 10
0.0
 20
0.0
 30
0.0
 75
     1
  1
AcDbOsnapPointRef
 72
     0
 40
0.0
 10
121.2802039763944
 20
512.3591315523124
 30
0.0
 75
     0
  0
DIMASSOC
  5
2B3
102
{ACAD_REACTORS
330
2A9
102
}
330
2A9
100
AcDbDimAssoc
330
29C
 90
        3
 70
     0
 71
     0
  1
AcDbOsnapPointRef
 72
     3
331
1F6
 73
     2
 91
        0
 40
3.490636767381587
 10
0.0
 20
0.0
 30
0.0
 75
     0
  1
AcDbOsnapPointRef
 72
     8
331
136
 73
     2
 91
        0
 40
0.4861111111111124
 10
0.0
 20
0.0
 30
0.0
 75
     1
  1
AcDbOsnapPointRef
 72
     3
331
1F6
 73
     2
 91
        0
 40
3.490636767381587
 10
0.0
 20
0.0
 30
0.0
 75
     0
  0
DIMASSOC
  5
2CE
102
{ACAD_REACTORS
330
2C3
102
}
330
2C3
100
AcDbDimAssoc
330
2B5
 90
        1
 70
     0
 71
     0
  1
AcDbOsnapPointRef
 72
    10
331
1F9
 73
     2
 91
        0
 40
0.421188761335019
 10
0.0
 20
0.0
 30
0.0
 75
     0
  0
LAYOUT
  5
22
102
{ACAD_REACTORS
330
1A
102
}
330
1A
100
AcDbPlotSettings
  1

  2
none_device
  4
ISO_A4_(210.00_x_297.00_MM)
  6

 40
7.5
 41
20.0
 42
7.5
 43
20.0
 44
210.0
 45
297.0
 46
11.54999923706054
 47
-13.65000009536743
 48
0.0
 49
0.0
140
0.0
141
0.0
142
1.0
143
8.704084754739808
 70
 11952
 72
     1
 73
     0
 74
     0
  7

 75
     0
147
0.1148885871608098
 76
     0
 77
     2
 78
   300
148
0.0
149
0.0
100
AcDbLayout
  1
Model
 70
     1
 71
     0
 10
0.0
 20
0.0
 11
12.0
 21
9.0
 12
0.0
 22
0.0
 32
0.0
 14
0.0
 24
0.0
 34
0.0
 15
0.0
 25
0.0
 35
0.0
146
0.0
 13
0.0
 23
0.0
 33
0.0
 16
1.0
 26
0.0
 36
0.0
 17
0.0
 27
1.0
 37
0.0
 76
     0
330
1F
331
EB
1001
ACAD_PSEXT
1000
None
1000
None
1000
Not applicable
1000
The layout will not be plotted unless a new plotter configuration name is selected.
1070
     0
  0
LAYOUT
  5
D3
102
{ACAD_REACTORS
330
1A
102
}
330
1A
100
AcDbPlotSettings
  1

  2
C:\Documents and Settings\basas\Application Data\Autodesk\AutoCAD 2005\R16.1\enu\plotters\Default Windows System Printer.pc3
  4

  6

 40
0.0
 41
0.0
 42
0.0
 43
0.0
 44
0.0
 45
0.0
 46
0.0
 47
0.0
 48
0.0
 49
0.0
140
0.0
141
0.0
142
1.0
143
1.0
 70
   688
 72
     0
 73
     0
 74
     5
  7

 75
    16
147
1.0
 76
     0
 77
     2
 78
   300
148
0.0
149
0.0
100
AcDbLayout
  1
布局1
 70
     1
 71
     1
 10
0.0
 20
0.0
 11
12.0
 21
9.0
 12
0.0
 22
0.0
 32
0.0
 14
0.0
 24
0.0
 34
0.0
 15
0.0
 25
0.0
 35
0.0
146
0.0
 13
0.0
 23
0.0
 33
0.0
 16
1.0
 26
0.0
 36
0.0
 17
0.0
 27
1.0
 37
0.0
 76
     0
330
D2
  0
LAYOUT
  5
D7
102
{ACAD_REACTORS
330
1A
102
}
330
1A
100
AcDbPlotSettings
  1

  2
C:\Documents and Settings\basas\Application Data\Autodesk\AutoCAD 2005\R16.1\enu\plotters\Default Windows System Printer.pc3
  4

  6

 40
0.0
 41
0.0
 42
0.0
 43
0.0
 44
0.0
 45
0.0
 46
0.0
 47
0.0
 48
0.0
 49
0.0
140
0.0
141
0.0
142
1.0
143
1.0
 70
   688
 72
     0
 73
     0
 74
     5
  7

 75
    16
147
1.0
 76
     0
 77
     2
 78
   300
148
0.0
149
0.0
100
AcDbLayout
  1
布局2
 70
     1
 71
     2
 10
0.0
 20
0.0
 11
12.0
 21
9.0
 12
0.0
 22
0.0
 32
0.0
 14
0.0
 24
0.0
 34
0.0
 15
0.0
 25
0.0
 35
0.0
146
0.0
 13
0.0
 23
0.0
 33
0.0
 16
1.0
 26
0.0
 36
0.0
 17
0.0
 27
1.0
 37
0.0
 76
     0
330
D6
  0
MATERIAL
  5
EE
102
{ACAD_REACTORS
330
6A
102
}
330
6A
100
AcDbMaterial
  1
ByBlock
  0
MATERIAL
  5
ED
102
{ACAD_REACTORS
330
6A
102
}
330
6A
100
AcDbMaterial
  1
ByLayer
  0
MATERIAL
  5
EF
102
{ACAD_REACTORS
330
6A
102
}
330
6A
100
AcDbMaterial
  1
Global
  0
MLINESTYLE
  5
18
102
{ACAD_REACTORS
330
17
102
}
330
17
100
AcDbMlineStyle
  2
STANDARD
 70
     0
  3

 62
   256
 51
90.0
 52
90.0
 71
     2
 49
0.5
 62
   256
  6
BYLAYER
 49
-0.5
 62
   256
  6
BYLAYER
  0
ACDBPLACEHOLDER
  5
F
102
{ACAD_REACTORS
330
E
102
}
330
E
  0
TABLESTYLE
  5
7F
102
{ACAD_REACTORS
330
7E
102
}
330
7E
100
AcDbTableStyle
  3
Standard
 70
     0
 71
     0
 40
1.5
 41
1.5
280
     0
281
     0
  7
Standard
140
4.5
170
     2
 62
     0
 63
     7
283
     0
 90
      512
 91
        0
  1

274
    -2
284
     1
 64
     0
275
    -2
285
     1
 65
     0
276
    -2
286
     1
 66
     0
277
    -2
287
     1
 67
     0
278
    -2
288
     1
 68
     0
279
    -2
289
     1
 69
     0
  7
Standard
140
6.0
170
     5
 62
     0
 63
     7
283
     0
 90
      512
 91
        0
  1

274
    -2
284
     1
 64
     0
275
    -2
285
     1
 65
     0
276
    -2
286
     1
 66
     0
277
    -2
287
     1
 67
     0
278
    -2
288
     1
 68
     0
279
    -2
289
     1
 69
     0
  7
Standard
140
4.5
170
     5
 62
     0
 63
     7
283
     0
 90
      512
 91
        0
  1

274
    -2
284
     1
 64
     0
275
    -2
285
     1
 65
     0
276
    -2
286
     1
 66
     0
277
    -2
287
     1
 67
     0
278
    -2
288
     1
 68
     0
279
    -2
289
     1
 69
     0
  0
VISUALSTYLE
  5
F6
102
{ACAD_REACTORS
330
F0
102
}
330
F0
100
AcDbVisualStyle
  2
2dWireframe
 70
     4
 71
     0
 72
     2
 73
     1
 90
        0
 40
-0.6
 41
-30.0
 62
     5
 63
     7
421
 16777215
 74
     1
 91
        4
 64
     7
 65
   257
 75
     1
175
     1
 42
1.0
 92
        0
 66
   257
 43
1.0
 76
     1
 77
     6
 78
     2
 67
     7
 79
     5
170
     0
171
     0
290
     0
174
     0
 93
        1
 44
0.0
173
     0
291
     0
 45
0.0
  0
VISUALSTYLE
  5
F8
102
{ACAD_REACTORS
330
F0
102
}
330
F0
100
AcDbVisualStyle
  2
3D Hidden
 70
     6
 71
     1
 72
     2
 73
     2
 90
        0
 40
-0.6
 41
-30.0
 62
     5
 63
     7
421
 16777215
 74
     2
 91
        2
 64
     7
 65
   257
 75
     2
175
     1
 42
40.0
 92
        0
 66
   257
 43
1.0
 76
     1
 77
     6
 78
     2
 67
     7
 79
     3
170
     0
171
     0
290
     0
174
     0
 93
        1
 44
0.0
173
     0
291
     0
 45
0.0
  0
VISUALSTYLE
  5
F7
102
{ACAD_REACTORS
330
F0
102
}
330
F0
100
AcDbVisualStyle
  2
3dWireframe
 70
     5
 71
     0
 72
     2
 73
     1
 90
        0
 40
-0.6
 41
-30.0
 62
     5
 63
     7
421
 16777215
 74
     1
 91
        4
 64
     7
 65
   257
 75
     1
175
     1
 42
1.0
 92
        0
 66
   257
 43
1.0
 76
     1
 77
     6
 78
     2
 67
     7
 79
     5
170
     0
171
     0
290
     0
174
     0
 93
        1
 44
0.0
173
     0
291
     0
 45
0.0
  0
VISUALSTYLE
  5
F5
102
{ACAD_REACTORS
330
F0
102
}
330
F0
100
AcDbVisualStyle
  2
Basic
 70
     7
 71
     1
 72
     0
 73
     1
 90
        0
 40
-0.6
 41
-30.0
 62
     5
 63
     7
421
 16777215
 74
     0
 91
        4
 64
     7
 65
   257
 75
     1
175
     1
 42
1.0
 92
        8
 66
     7
 43
1.0
 76
     1
 77
     6
 78
     2
 67
     7
 79
     5
170
     0
171
     0
290
     0
174
     0
 93
        1
 44
0.0
173
     0
291
     1
 45
0.0
  0
VISUALSTYLE
  5
FC
102
{ACAD_REACTORS
330
F0
102
}
330
F0
100
AcDbVisualStyle
  2
Brighten
 70
    12
 71
     2
 72
     2
 73
     1
 90
        0
 40
-0.6
 41
-30.0
 62
     5
 63
     7
421
 16777215
 74
     1
 91
        4
 64
     7
 65
   257
 75
     1
175
     1
 42
1.0
 92
        8
 66
     7
 43
1.0
 76
     1
 77
     6
 78
     2
 67
     7
 79
     5
170
     0
171
     0
290
     0
174
     0
 93
        1
 44
50.0
173
     0
291
     1
 45
0.0
  0
VISUALSTYLE
  5
100
102
{ACAD_REACTORS
330
F0
102
}
330
F0
100
AcDbVisualStyle
  2
ColorChange
 70
    16
 71
     2
 72
     2
 73
     3
 90
        0
 40
-0.6
 41
-30.0
 62
     5
 63
     8
421
  8421504
 74
     1
 91
        4
 64
     7
 65
   257
 75
     1
175
     1
 42
1.0
 92
        8
 66
     8
424
  8421504
 43
1.0
 76
     1
 77
     6
 78
     2
 67
     7
 79
     5
170
     0
171
     0
290
     0
174
     0
 93
        1
 44
0.0
173
     0
291
     1
 45
0.0
  0
VISUALSTYLE
  5
F9
102
{ACAD_REACTORS
330
F0
102
}
330
F0
100
AcDbVisualStyle
  2
Conceptual
 70
     9
 71
     3
 72
     2
 73
     1
 90
        0
 40
-0.6
 41
-30.0
 62
     5
 63
     7
421
 16777215
 74
     2
 91
        2
 64
     7
 65
   257
 75
     1
175
     1
 42
40.0
 92
        8
 66
     7
 43
1.0
 76
     1
 77
     6
 78
     2
 67
     7
 79
     3
170
     0
171
     0
290
     0
174
     0
 93
        1
 44
0.0
173
     0
291
     0
 45
0.0
  0
VISUALSTYLE
  5
FB
102
{ACAD_REACTORS
330
F0
102
}
330
F0
100
AcDbVisualStyle
  2
Dim
 70
    11
 71
     2
 72
     2
 73
     1
 90
        0
 40
-0.6
 41
-30.0
 62
     5
 63
     7
421
 16777215
 74
     1
 91
        4
 64
     7
 65
   257
 75
     1
175
     1
 42
1.0
 92
        8
 66
     7
 43
1.0
 76
     1
 77
     6
 78
     2
 67
     7
 79
     5
170
     0
171
     0
290
     0
174
     0
 93
        1
 44
-50.0
173
     0
291
     1
 45
0.0
  0
VISUALSTYLE
  5
FF
102
{ACAD_REACTORS
330
F0
102
}
330
F0
100
AcDbVisualStyle
  2
Facepattern
 70
    15
 71
     2
 72
     2
 73
     1
 90
        0
 40
-0.6
 41
-30.0
 62
     5
 63
     7
421
 16777215
 74
     1
 91
        4
 64
     7
 65
   257
 75
     1
175
     1
 42
1.0
 92
        8
 66
     7
 43
1.0
 76
     1
 77
     6
 78
     2
 67
     7
 79
     5
170
     0
171
     0
290
     0
174
     0
 93
        1
 44
0.0
173
     0
291
     1
 45
0.0
  0
VISUALSTYLE
  5
F1
102
{ACAD_REACTORS
330
F0
102
}
330
F0
100
AcDbVisualStyle
  2
Flat
 70
     0
 71
     2
 72
     1
 73
     1
 90
        2
 40
-0.6
 41
30.0
 62
     5
 63
     7
421
 16777215
 74
     0
 91
        4
 64
     7
 65
   257
 75
     1
175
     1
 42
1.0
 92
        8
 66
     7
 43
1.0
 76
     1
 77
     6
 78
     2
 67
     7
 79
     5
170
     0
171
     0
290
     0
174
     0
 93
        1
 44
0.0
173
     0
291
     1
 45
0.0
  0
VISUALSTYLE
  5
F2
102
{ACAD_REACTORS
330
F0
102
}
330
F0
100
AcDbVisualStyle
  2
FlatWithEdges
 70
     1
 71
     2
 72
     1
 73
     1
 90
        2
 40
-0.6
 41
30.0
 62
     5
 63
     7
421
 16777215
 74
     1
 91
        4
 64
     7
 65
   257
 75
     1
175
     1
 42
1.0
 92
        0
 66
   257
 43
1.0
 76
     1
 77
     6
 78
     2
 67
     7
 79
     5
170
     0
171
     0
290
     0
174
     0
 93
        1
 44
0.0
173
     0
291
     1
 45
0.0
  0
VISUALSTYLE
  5
F3
102
{ACAD_REACTORS
330
F0
102
}
330
F0
100
AcDbVisualStyle
  2
Gouraud
 70
     2
 71
     2
 72
     2
 73
     1
 90
        2
 40
-0.6
 41
30.0
 62
     5
 63
     7
421
 16777215
 74
     0
 91
        4
 64
     7
 65
   257
 75
     1
175
     1
 42
1.0
 92
        0
 66
     7
 43
1.0
 76
     1
 77
     6
 78
     2
 67
     7
 79
     5
170
     0
171
     0
290
     0
174
     0
 93
        1
 44
0.0
173
     0
291
     1
 45
0.0
  0
VISUALSTYLE
  5
F4
102
{ACAD_REACTORS
330
F0
102
}
330
F0
100
AcDbVisualStyle
  2
GouraudWithEdges
 70
     3
 71
     2
 72
     2
 73
     1
 90
        2
 40
-0.6
 41
30.0
 62
     5
 63
     7
421
 16777215
 74
     1
 91
        4
 64
     7
 65
   257
 75
     1
175
     1
 42
1.0
 92
        0
 66
   257
 43
1.0
 76
     1
 77
     6
 78
     2
 67
     7
 79
     5
170
     0
171
     0
290
     0
174
     0
 93
        1
 44
0.0
173
     0
291
     1
 45
0.0
  0
VISUALSTYLE
  5
FE
102
{ACAD_REACTORS
330
F0
102
}
330
F0
100
AcDbVisualStyle
  2
Linepattern
 70
    14
 71
     2
 72
     2
 73
     1
 90
        0
 40
-0.6
 41
-30.0
 62
     5
 63
     7
421
 16777215
 74
     1
 91
        4
 64
     7
 65
   257
 75
     7
175
     7
 42
1.0
 92
        8
 66
     7
 43
1.0
 76
     1
 77
     6
 78
     2
 67
     7
 79
     5
170
     0
171
     0
290
     0
174
     0
 93
        1
 44
0.0
173
     0
291
     1
 45
0.0
  0
VISUALSTYLE
  5
FA
102
{ACAD_REACTORS
330
F0
102
}
330
F0
100
AcDbVisualStyle
  2
Realistic
 70
     8
 71
     2
 72
     2
 73
     1
 90
        0
 40
-0.6
 41
-30.0
 62
     5
 63
     7
421
 16777215
 74
     1
 91
        0
 64
     7
 65
   257
 75
     1
175
     1
 42
1.0
 92
        8
 66
     8
424
  7895160
 43
1.0
 76
     1
 77
     6
 78
     2
 67
     7
 79
     5
170
     0
171
     0
290
     0
174
     0
 93
       13
 44
0.0
173
     0
291
     0
 45
0.0
  0
VISUALSTYLE
  5
FD
102
{ACAD_REACTORS
330
F0
102
}
330
F0
100
AcDbVisualStyle
  2
Thicken
 70
    13
 71
     2
 72
     2
 73
     1
 90
        0
 40
-0.6
 41
-30.0
 62
     5
 63
     7
421
 16777215
 74
     1
 91
        4
 64
     7
 65
   257
 75
     1
175
     1
 42
1.0
 92
       12
 66
     7
 43
1.0
 76
     1
 77
     6
 78
     2
 67
     7
 79
     5
170
     0
171
     0
290
     0
174
     0
 93
        1
 44
0.0
173
     0
291
     1
 45
0.0
  0
DICTIONARYVAR
  5
84
102
{ACAD_REACTORS
330
5E
102
}
330
5E
100
DictionaryVariables
280
     0
  1
STANDARD
  0
DICTIONARYVAR
  5
5F
102
{ACAD_REACTORS
330
5E
102
}
330
5E
100
DictionaryVariables
280
     0
  1
2
  0
DICTIONARYVAR
  5
63
102
{ACAD_REACTORS
330
5E
102
}
330
5E
100
DictionaryVariables
280
     0
  1
1
  0
ENDSEC
  0
EOF
